<?xml version="1.0" encoding="UTF-8"?>
<svg xmlns="http://www.w3.org/2000/svg" xmlns:xlink="http://www.w3.org/1999/xlink" version="1.2" >
<font id="Graphik Light">
<font-face  font-family="Graphik" units-per-em="1000" ascent="818" descent="-182" font-style="normal" font-weight="300" font-stretch="normal" cap-height="715" x-height="523" underline-position="-75" underline-thickness="50" />
<missing-glyph  horiz-adv-x="500" d="" />
<glyph glyph-name="NULL" d="" />
<glyph glyph-name="CR" unicode="&#xd;" horiz-adv-x="250" d="" />
<glyph glyph-name="space" unicode="&#x20;" horiz-adv-x="247" d="" />
<glyph glyph-name="exclam" unicode="&#x21;" horiz-adv-x="271" d="M136 -5 C159 -5 178 14 178 37 C178 61 159 80 136 80 C112 80 93 61 93 37 C93 14 112 -5 136 -5 L136 -5 Z M116 179 L158 179 L166 715 L107 715 L116 179 Z " />
<glyph glyph-name="quotedbl" unicode="&#x22;" horiz-adv-x="305" d="M67 506 L107 506 L116 715 L58 715 L67 506 Z M198 506 L238 506 L247 715 L189 715 L198 506 Z " />
<glyph glyph-name="numbersign" unicode="&#x23;" horiz-adv-x="492" d="M258 99 L303 99 L331 295 L432 295 L432 340 L338 340 L361 497 L460 497 L460 542 L367 542 L393 715 L348 715 L322 542 L202 542 L228 715 L183 715 L157 542 L59 542 L59 497 L151 497 L128 340 L31 340 L31 295 L121 295 L93 99 L138 99 L166 295 L286 295 L258 99 Z M196 497 L316 497 L293 340 L173 340 L196 497 Z " />
<glyph glyph-name="dollar" unicode="&#x24;" horiz-adv-x="606" d="M283 -135 L323 -135 L323 -8 C460 -3 549 85 549 195 C549 325 475 369 323 394 L323 677 C413 670 462 624 478 543 L529 543 C514 649 441 714 323 722 L323 813 L283 813 L283 723 C157 718 70 643 70 536 C70 428 141 376 283 352 L283 38 C151 47 109 120 97 205 L43 205 C57 94 121 1 283 -7 L283 -135 Z M495 191 C495 106 428 42 323 37 L323 345 C450 323 495 286 495 191 L495 191 Z M122 540 C122 622 183 673 283 677 L283 400 C156 424 122 467 122 540 L122 540 Z " />
<glyph glyph-name="percent" unicode="&#x25;" horiz-adv-x="766" d="M197 440 C137 440 90 482 90 557 C90 634 137 678 197 678 C258 678 304 632 304 559 C304 483 258 440 197 440 L197 440 Z M197 398 C279 398 353 461 353 559 C353 653 282 720 197 720 C114 720 40 653 40 557 C40 461 116 398 197 398 L197 398 Z M129 0 L180 0 L635 715 L585 715 L129 0 Z M568 36 C509 36 461 78 461 153 C461 229 508 273 568 273 C630 273 675 228 675 155 C675 79 629 36 568 36 L568 36 Z M568 -7 C650 -7 725 57 725 155 C725 249 653 316 568 316 C485 316 412 249 412 153 C412 57 487 -7 568 -7 L568 -7 Z " />
<glyph glyph-name="ampersand" unicode="&#x26;" horiz-adv-x="663" d="M621 362 L570 362 L474 184 L297 392 C390 433 459 489 459 575 C459 656 398 719 311 719 C224 719 149 659 149 563 C149 508 175 461 222 403 C131 358 49 298 49 186 C49 73 133 -7 262 -7 C362 -7 427 47 472 106 L563 0 L629 0 L504 146 L621 362 Z M264 38 C162 38 103 100 103 191 C103 283 171 334 248 372 L443 141 C400 82 343 38 264 38 L264 38 Z M201 563 C201 634 248 676 309 676 C370 676 408 634 408 576 C408 503 357 461 273 422 C228 476 201 516 201 563 L201 563 Z " />
<glyph glyph-name="quotesingle" unicode="&#x27;" horiz-adv-x="174" d="M67 506 L107 506 L116 715 L58 715 L67 506 Z " />
<glyph glyph-name="parenleft" unicode="&#x28;" horiz-adv-x="299" d="M220 -148 L274 -148 C184 -36 111 107 111 312 C111 517 184 661 274 773 L220 773 C129 665 55 511 55 312 C55 113 129 -40 220 -148 L220 -148 Z " />
<glyph glyph-name="parenright" unicode="&#x29;" horiz-adv-x="299" d="M26 -146 L79 -146 C171 -38 244 115 244 314 C244 513 171 667 79 775 L26 775 C116 663 189 519 189 314 C189 110 116 -34 26 -146 L26 -146 Z " />
<glyph glyph-name="asterisk" unicode="&#x2a;" horiz-adv-x="417" d="M125 423 L208 545 L292 423 L329 450 L239 567 L371 607 L357 651 L229 600 L233 743 L185 743 L189 600 L61 651 L46 607 L178 567 L88 450 L125 423 Z " />
<glyph glyph-name="plus" unicode="&#x2b;" horiz-adv-x="510" d="M231 110 L279 110 L279 319 L474 319 L474 365 L279 365 L279 574 L231 574 L231 365 L36 365 L36 319 L231 319 L231 110 Z " />
<glyph glyph-name="comma" unicode="&#x2c;" horiz-adv-x="229" d="M69 -117 L162 60 L110 84 L33 -99 L69 -117 Z " />
<glyph glyph-name="hyphen" unicode="&#x2d;" horiz-adv-x="333" d="M62 252 L271 252 L271 302 L62 302 L62 252 Z " />
<glyph glyph-name="period" unicode="&#x2e;" horiz-adv-x="229" d="M114 -5 C138 -5 157 14 157 37 C157 61 138 80 114 80 C91 80 72 61 72 37 C72 14 91 -5 114 -5 L114 -5 Z " />
<glyph glyph-name="slash" unicode="&#x2f;" horiz-adv-x="391" d="M13 -148 L63 -148 L354 776 L304 776 L13 -148 Z " />
<glyph glyph-name="zero" unicode="0" horiz-adv-x="659" d="M332 39 C196 39 114 137 114 327 L114 388 C114 572 193 677 329 677 C466 677 546 565 546 390 L546 330 C546 140 473 39 332 39 L332 39 Z M332 -8 C505 -8 603 121 603 329 L603 390 C603 594 499 723 329 723 C159 723 57 596 57 387 L57 327 C57 119 162 -8 332 -8 L332 -8 Z " />
<glyph glyph-name="one" unicode="1" horiz-adv-x="368" d="M191 0 L246 0 L246 715 L199 715 L27 595 L27 543 L191 657 L191 0 Z " />
<glyph glyph-name="two" unicode="2" horiz-adv-x="537" d="M20 0 L485 0 L485 46 L108 46 L339 275 C427 361 475 441 475 528 C475 652 390 723 267 723 C142 723 55 642 44 507 L96 507 C110 624 175 677 267 677 C359 677 419 625 419 530 C419 453 383 388 307 310 L20 13 L20 0 Z " />
<glyph glyph-name="three" unicode="3" horiz-adv-x="567" d="M276 -8 C416 -8 513 68 513 198 C513 297 456 359 371 378 C441 400 488 457 488 535 C488 637 414 723 287 723 C161 723 72 636 65 527 L115 527 C124 613 188 676 287 676 C383 676 434 615 434 534 C434 459 392 398 289 398 L241 398 L241 351 L293 351 C404 351 456 290 456 198 C456 97 392 38 277 38 C155 38 97 112 88 202 L37 202 C42 88 129 -8 276 -8 L276 -8 Z " />
<glyph glyph-name="four" unicode="4" horiz-adv-x="595" d="M402 0 L457 0 L457 161 L556 161 L556 207 L457 207 L457 715 L379 715 L33 178 L33 161 L402 161 L402 0 Z M107 207 L402 674 L402 207 L107 207 Z " />
<glyph glyph-name="five" unicode="5" horiz-adv-x="561" d="M268 -8 C406 -8 507 83 507 232 C507 375 411 465 287 465 C213 465 157 435 127 405 L127 667 L470 667 L470 715 L80 715 L80 341 L101 341 C138 386 191 419 278 419 C377 419 450 345 450 232 C450 112 382 38 268 38 C152 38 104 104 92 184 L38 184 C48 79 123 -8 268 -8 L268 -8 Z " />
<glyph glyph-name="six" unicode="6" horiz-adv-x="600" d="M309 -8 C455 -8 549 87 549 226 C549 355 464 455 315 455 C231 455 148 412 115 333 L115 362 C117 585 203 676 326 676 C413 676 462 638 477 560 L530 560 C513 671 434 723 329 723 C172 723 60 607 60 345 L60 293 C60 124 128 -8 309 -8 L309 -8 Z M309 37 C185 37 121 124 121 233 C121 343 206 410 308 410 C427 410 492 335 492 224 C492 113 420 37 309 37 L309 37 Z " />
<glyph glyph-name="seven" unicode="7" horiz-adv-x="504" d="M149 0 L206 0 L485 706 L485 715 L28 715 L28 669 L415 669 L149 0 Z " />
<glyph glyph-name="eight" unicode="8" horiz-adv-x="583" d="M292 -8 C419 -8 531 63 531 201 C531 300 468 363 376 387 C449 410 501 462 501 545 C501 652 401 723 292 723 C184 723 82 654 82 543 C82 462 136 408 209 387 C120 364 52 299 52 199 C52 62 170 -8 292 -8 L292 -8 Z M292 39 C192 39 109 93 109 201 C109 305 195 362 294 362 C393 362 474 306 474 203 C474 94 398 39 292 39 L292 39 Z M295 407 C216 407 138 454 138 543 C138 626 204 678 292 678 C380 678 445 623 445 545 C445 455 380 407 295 407 L295 407 Z " />
<glyph glyph-name="nine" unicode="9" horiz-adv-x="599" d="M281 -7 C443 -7 540 94 540 346 L540 428 C540 604 460 723 291 723 C145 723 50 629 50 490 C50 357 138 260 283 260 C368 260 453 301 486 377 L486 339 C485 116 408 39 282 39 C189 39 134 84 116 164 L62 164 C82 53 164 -7 281 -7 L281 -7 Z M290 305 C172 305 107 381 107 492 C107 603 179 679 291 679 C415 679 479 588 479 477 C479 371 393 305 290 305 L290 305 Z " />
<glyph glyph-name="colon" unicode="&#x3a;" horiz-adv-x="237" d="M118 -5 C142 -5 161 14 161 37 C161 61 142 80 118 80 C95 80 76 61 76 37 C76 14 95 -5 118 -5 L118 -5 Z M118 320 C142 320 161 338 161 362 C161 386 142 404 118 404 C95 404 76 386 76 362 C76 338 95 320 118 320 L118 320 Z " />
<glyph glyph-name="semicolon" unicode="&#x3b;" horiz-adv-x="237" d="M59 -117 L153 60 L100 84 L23 -99 L59 -117 Z M123 320 C147 320 166 338 166 362 C166 386 147 404 123 404 C100 404 81 386 81 362 C81 338 100 320 123 320 L123 320 Z " />
<glyph glyph-name="less" unicode="&#x3c;" horiz-adv-x="496" d="M435 104 L435 156 L129 322 L435 488 L435 540 L51 329 L51 315 L435 104 Z " />
<glyph glyph-name="equal" unicode="&#x3d;" horiz-adv-x="484" d="M40 213 L444 213 L444 259 L40 259 L40 213 Z M40 380 L444 380 L444 426 L40 426 L40 380 Z " />
<glyph glyph-name="greater" unicode="&#x3e;" horiz-adv-x="496" d="M61 104 L445 315 L445 329 L61 540 L61 488 L367 322 L61 156 L61 104 Z " />
<glyph glyph-name="question" unicode="&#x3f;" horiz-adv-x="477" d="M188 179 L236 179 L236 232 C236 299 274 337 325 387 C379 441 428 482 428 563 C428 649 369 723 244 723 C127 723 44 645 37 528 L88 528 C96 621 156 678 243 678 C332 678 373 629 373 561 C373 498 334 461 288 415 C233 360 188 316 188 236 L188 179 Z M211 -5 C234 -5 253 14 253 37 C253 61 234 80 211 80 C187 80 168 61 168 37 C168 14 187 -5 211 -5 L211 -5 Z " />
<glyph glyph-name="at" unicode="&#x40;" horiz-adv-x="909" d="M460 -147 C615 -147 733 -81 782 0 L732 0 C675 -60 592 -104 460 -104 C220 -104 96 70 96 263 C96 485 263 645 472 645 C690 645 818 509 818 320 C818 174 757 110 689 110 C633 110 612 153 621 220 L649 460 L596 460 L587 376 C574 426 529 469 456 469 C352 469 262 371 262 237 C262 129 327 63 421 63 C494 63 551 119 575 171 C581 107 615 70 689 70 C769 70 865 139 865 322 C865 528 711 688 472 688 C245 688 46 506 46 262 C46 48 192 -147 460 -147 L460 -147 Z M430 105 C363 105 316 154 316 237 C316 352 385 426 460 426 C531 426 577 377 577 290 C577 184 508 105 430 105 L430 105 Z " />
<glyph glyph-name="A" unicode="A" horiz-adv-x="654" d="M33 0 L86 0 L164 219 L486 219 L565 0 L621 0 L364 715 L290 715 L33 0 Z M325 669 L470 264 L180 264 L325 669 Z " />
<glyph glyph-name="B" unicode="B" horiz-adv-x="604" d="M92 0 L325 0 C461 0 547 66 547 197 L547 201 C547 298 497 355 390 375 C470 397 512 451 512 530 L512 534 C512 664 421 715 295 715 L92 715 L92 0 Z M147 45 L147 349 L305 349 C430 349 493 299 493 201 L493 197 C493 98 436 45 324 45 L147 45 Z M147 393 L147 670 L294 670 C399 670 457 628 457 535 L457 531 C457 441 405 393 296 393 L147 393 Z " />
<glyph glyph-name="C" unicode="C" horiz-adv-x="725" d="M385 -8 C539 -8 656 76 682 230 L630 230 C607 107 515 39 386 39 C216 39 110 161 110 354 L110 362 C110 551 226 679 386 679 C518 679 596 615 618 500 L674 500 C652 647 533 724 385 724 C198 724 53 572 53 361 L53 353 C53 137 181 -8 385 -8 L385 -8 Z " />
<glyph glyph-name="D" unicode="D" horiz-adv-x="686" d="M148 46 L148 669 L273 669 C483 669 576 540 576 364 L576 356 C576 174 477 46 274 46 L148 46 Z M92 0 L276 0 C520 0 634 157 634 355 L634 364 C634 563 514 715 278 715 L92 715 L92 0 Z " />
<glyph glyph-name="E" unicode="E" horiz-adv-x="566" d="M92 0 L521 0 L521 46 L148 46 L148 344 L436 344 L436 390 L148 390 L148 669 L503 669 L503 715 L92 715 L92 0 Z " />
<glyph glyph-name="F" unicode="F" horiz-adv-x="540" d="M92 0 L148 0 L148 339 L424 339 L424 385 L148 385 L148 669 L499 669 L499 715 L92 715 L92 0 Z " />
<glyph glyph-name="G" unicode="G" horiz-adv-x="756" d="M396 -8 C580 -8 703 102 703 308 L703 349 L429 349 L429 302 L649 302 L649 298 C647 141 563 38 396 38 C212 38 110 164 110 354 L110 362 C110 548 223 679 395 679 C509 679 599 629 625 511 L681 511 C654 660 531 724 394 724 C198 724 53 570 53 361 L53 353 C53 143 181 -8 396 -8 L396 -8 Z " />
<glyph glyph-name="H" unicode="H" horiz-adv-x="717" d="M92 0 L148 0 L148 335 L569 335 L569 0 L625 0 L625 715 L569 715 L569 382 L148 382 L148 715 L92 715 L92 0 Z " />
<glyph glyph-name="I" unicode="I" horiz-adv-x="250" d="M97 0 L153 0 L153 715 L97 715 L97 0 Z " />
<glyph glyph-name="J" unicode="J" horiz-adv-x="401" d="M137 -7 C241 -7 319 49 319 181 L319 715 L263 715 L263 183 C263 80 214 39 134 39 C91 39 62 49 37 60 L37 13 C56 4 87 -7 137 -7 L137 -7 Z " />
<glyph glyph-name="K" unicode="K" horiz-adv-x="599" d="M92 0 L148 0 L148 361 L508 0 L576 0 L213 367 L559 716 L495 716 L148 363 L148 715 L92 715 L92 0 Z " />
<glyph glyph-name="L" unicode="L" horiz-adv-x="530" d="M92 0 L495 0 L495 46 L148 46 L148 715 L92 715 L92 0 Z " />
<glyph glyph-name="M" unicode="M" horiz-adv-x="851" d="M92 0 L144 0 L144 645 L413 0 L431 0 L700 645 L700 0 L755 0 L755 715 L677 715 L424 101 L172 715 L92 715 L92 0 Z " />
<glyph glyph-name="N" unicode="N" horiz-adv-x="713" d="M92 0 L146 0 L146 653 L555 0 L621 0 L621 715 L568 715 L568 77 L168 715 L92 715 L92 0 Z " />
<glyph glyph-name="O" unicode="O" horiz-adv-x="801" d="M403 39 C237 39 110 172 110 354 L110 362 C110 542 226 677 401 677 C576 677 691 538 691 364 L691 356 C691 173 574 39 403 39 L403 39 Z M403 -8 C603 -8 749 153 749 355 L749 363 C749 564 603 723 401 723 C200 723 53 564 53 361 L53 353 C53 153 199 -8 403 -8 L403 -8 Z " />
<glyph glyph-name="P" unicode="P" horiz-adv-x="568" d="M92 0 L148 0 L148 306 L282 306 C421 306 525 363 525 510 L525 514 C525 659 420 715 281 715 L92 715 L92 0 Z M148 351 L148 669 L284 669 C396 669 469 630 469 514 L469 510 C469 400 401 351 286 351 L148 351 Z " />
<glyph glyph-name="Q" unicode="Q" horiz-adv-x="801" d="M672 -60 L706 -27 L618 67 C699 133 749 237 749 355 L749 363 C749 564 603 723 401 723 C200 723 53 564 53 361 L53 353 C53 153 199 -8 403 -8 C469 -8 528 9 579 40 L672 -60 Z M403 39 C237 39 110 172 110 354 L110 362 C110 542 226 677 401 677 C576 677 691 538 691 364 L691 356 C691 250 652 160 585 103 L479 219 L445 186 L546 76 C505 52 457 39 403 39 L403 39 Z " />
<glyph glyph-name="R" unicode="R" horiz-adv-x="606" d="M92 0 L148 0 L148 326 L287 326 L511 0 L573 0 L346 330 C453 345 531 400 531 519 L531 523 C531 661 427 715 288 715 L92 715 L92 0 Z M148 371 L148 669 L291 669 C402 669 475 633 475 523 L475 519 C475 415 406 371 291 371 L148 371 Z " />
<glyph glyph-name="S" unicode="S" horiz-adv-x="602" d="M308 -8 C452 -8 547 82 547 195 C547 329 470 374 310 398 C161 420 122 462 122 540 C122 626 185 677 295 677 C401 677 457 632 474 543 L525 543 C509 657 428 723 295 723 C161 723 70 647 70 536 C70 423 145 371 301 348 C445 326 493 291 493 191 C493 103 420 38 308 38 C159 38 109 115 97 205 L42 205 C57 88 131 -8 308 -8 L308 -8 Z " />
<glyph glyph-name="T" unicode="T" horiz-adv-x="559" d="M252 0 L307 0 L307 669 L529 669 L529 715 L30 715 L30 669 L252 669 L252 0 Z " />
<glyph glyph-name="U" unicode="U" horiz-adv-x="682" d="M338 -7 C516 -7 601 96 601 267 L601 715 L545 715 L545 275 C545 106 476 40 339 40 C206 40 137 109 137 262 L137 715 L82 715 L82 256 C82 85 177 -7 338 -7 L338 -7 Z " />
<glyph glyph-name="V" unicode="V" horiz-adv-x="637" d="M288 0 L354 0 L607 715 L555 715 L323 55 L84 715 L29 715 L288 0 Z " />
<glyph glyph-name="W" unicode="W" horiz-adv-x="920" d="M222 0 L275 0 L461 616 L637 0 L691 0 L887 715 L836 715 L663 83 L481 715 L442 715 L253 85 L89 715 L33 715 L222 0 Z " />
<glyph glyph-name="X" unicode="X" horiz-adv-x="646" d="M46 0 L103 0 L320 328 L537 0 L600 0 L356 369 L584 715 L526 715 L328 412 L128 715 L67 715 L293 370 L46 0 Z " />
<glyph glyph-name="Y" unicode="Y" horiz-adv-x="578" d="M268 0 L324 0 L324 317 L555 715 L499 715 L297 365 L85 715 L23 715 L268 318 L268 0 Z " />
<glyph glyph-name="Z" unicode="Z" horiz-adv-x="587" d="M27 0 L542 0 L542 48 L111 48 L548 705 L548 715 L63 715 L63 669 L470 669 L27 11 L27 0 Z " />
<glyph glyph-name="bracketleft" unicode="&#x5b;" horiz-adv-x="340" d="M93 -148 L299 -148 L299 -105 L146 -105 L146 733 L299 733 L299 776 L93 776 L93 -148 Z " />
<glyph glyph-name="backslash" unicode="&#x5c;" horiz-adv-x="391" d="M328 -148 L378 -148 L87 776 L37 776 L328 -148 Z " />
<glyph glyph-name="bracketright" unicode="&#x5d;" horiz-adv-x="340" d="M42 -148 L247 -148 L247 776 L42 776 L42 733 L194 733 L194 -105 L42 -105 L42 -148 Z " />
<glyph glyph-name="asciicircum" unicode="&#x5e;" horiz-adv-x="478" d="M46 422 L99 422 L239 667 L378 422 L433 422 L266 715 L213 715 L46 422 Z " />
<glyph glyph-name="underscore" unicode="&#x5f;" horiz-adv-x="389" d="M-1 -151 L390 -151 L390 -107 L-1 -107 L-1 -151 Z " />
<glyph glyph-name="grave" unicode="&#x60;" horiz-adv-x="400" d="M184 605 L225 605 L157 752 L92 752 L184 605 Z " />
<glyph glyph-name="a" unicode="a" horiz-adv-x="529" d="M221 -8 C309 -8 365 29 398 80 L398 0 L451 0 L451 346 C451 479 377 531 268 531 C169 531 79 485 67 375 L119 375 C131 452 187 486 266 486 C358 486 398 444 398 346 L398 299 L289 299 C160 299 44 262 44 141 C44 42 118 -8 221 -8 L221 -8 Z M225 35 C139 35 97 74 97 141 C97 235 182 258 291 258 L398 258 L398 169 C398 91 321 35 225 35 L225 35 Z " />
<glyph glyph-name="b" unicode="b" horiz-adv-x="612" d="M334 -8 C469 -8 569 95 569 259 L569 267 C569 430 466 531 334 531 C242 531 165 469 135 401 L135 773 L82 773 L82 0 L135 0 L135 119 C163 55 231 -8 334 -8 L334 -8 Z M330 37 C221 37 134 114 134 257 L134 265 C134 409 227 486 329 486 C429 486 514 409 514 265 L514 257 C514 117 440 37 330 37 L330 37 Z " />
<glyph glyph-name="c" unicode="c" horiz-adv-x="556" d="M293 -8 C412 -8 502 69 516 181 L467 181 C454 87 380 37 293 37 C183 37 98 118 98 256 L98 264 C98 402 184 486 293 486 C375 486 446 445 459 357 L511 357 C497 475 399 531 293 531 C155 531 43 424 43 264 L43 256 C43 97 152 -8 293 -8 L293 -8 Z " />
<glyph glyph-name="d" unicode="d" horiz-adv-x="612" d="M278 -8 C376 -8 449 58 477 121 L477 0 L530 0 L530 773 L477 773 L477 407 C447 472 389 531 286 531 C148 531 43 423 43 262 L43 254 C43 88 145 -8 278 -8 L278 -8 Z M283 37 C179 37 98 113 98 256 L98 264 C98 405 179 486 291 486 C400 486 478 410 478 266 L478 258 C478 114 389 37 283 37 L283 37 Z " />
<glyph glyph-name="e" unicode="e" horiz-adv-x="554" d="M291 -8 C403 -8 486 46 508 146 L455 146 C437 73 378 37 291 37 C167 37 100 117 98 257 L512 257 L512 276 C512 449 409 531 283 531 C143 531 43 422 43 264 L43 256 C43 99 140 -8 291 -8 L291 -8 Z M100 300 C110 414 182 486 283 486 C385 486 452 427 457 300 L100 300 Z " />
<glyph glyph-name="f" unicode="f" horiz-adv-x="333" d="M105 0 L158 0 L158 478 L304 478 L304 523 L158 523 L158 622 C158 698 197 731 255 731 C277 731 296 727 311 722 L311 767 C292 773 278 776 253 776 C166 776 105 726 105 617 L105 523 L26 523 L26 478 L105 478 L105 0 Z " />
<glyph glyph-name="g" unicode="g" horiz-adv-x="612" d="M288 -188 C428 -188 529 -119 530 35 L530 523 L477 523 L477 410 C447 474 389 531 286 531 C148 531 43 423 43 274 L43 267 C43 115 146 17 279 17 C376 17 449 81 477 144 L477 37 C477 -92 399 -143 287 -143 C178 -143 122 -97 108 -30 L54 -30 C67 -114 137 -188 288 -188 L288 -188 Z M284 62 C180 62 98 138 98 268 L98 276 C98 406 179 486 291 486 C400 486 478 410 478 278 L478 270 C478 139 390 62 284 62 L284 62 Z " />
<glyph glyph-name="h" unicode="h" horiz-adv-x="583" d="M82 0 L135 0 L135 317 C135 427 221 485 308 485 C401 485 453 436 453 325 L453 0 L506 0 L506 322 C506 471 431 531 320 531 C227 531 159 478 135 421 L135 773 L82 773 L82 0 Z " />
<glyph glyph-name="i" unicode="i" horiz-adv-x="221" d="M84 0 L137 0 L137 523 L84 523 L84 0 Z M110 635 C131 635 147 652 147 673 C147 693 131 710 110 710 C89 710 72 693 72 673 C72 652 89 635 110 635 L110 635 Z " />
<glyph glyph-name="j" unicode="j" horiz-adv-x="221" d="M7 -188 C102 -184 137 -139 137 -48 L137 523 L84 523 L84 -52 C84 -108 66 -138 7 -143 L7 -188 Z M110 635 C131 635 147 652 147 673 C147 693 131 710 110 710 C89 710 72 693 72 673 C72 652 89 635 110 635 L110 635 Z " />
<glyph glyph-name="k" unicode="k" horiz-adv-x="487" d="M82 0 L135 0 L135 277 L404 0 L470 0 L198 279 L453 523 L390 523 L135 277 L135 773 L82 773 L82 0 Z " />
<glyph glyph-name="l" unicode="l" horiz-adv-x="222" d="M84 0 L138 0 L138 773 L84 773 L84 0 Z " />
<glyph glyph-name="m" unicode="m" horiz-adv-x="904" d="M82 0 L135 0 L135 319 C135 428 217 485 297 485 C381 485 428 441 428 330 L428 0 L481 0 L481 319 C481 428 563 485 643 485 C727 485 774 441 774 330 L774 0 L827 0 L827 327 C827 476 753 531 652 531 C573 531 499 488 466 414 C444 498 384 531 306 531 C221 531 159 481 135 424 L135 523 L82 523 L82 0 Z " />
<glyph glyph-name="n" unicode="n" horiz-adv-x="583" d="M82 0 L135 0 L135 317 C135 427 221 485 308 485 C401 485 453 436 453 325 L453 0 L506 0 L506 322 C506 471 431 531 320 531 C227 531 159 478 135 421 L135 523 L82 523 L82 0 Z " />
<glyph glyph-name="o" unicode="o" horiz-adv-x="591" d="M296 37 C182 37 98 123 98 257 L98 265 C98 401 184 486 296 486 C407 486 493 403 493 265 L493 257 C493 122 408 37 296 37 L296 37 Z M295 -8 C436 -8 548 100 548 258 L548 266 C548 425 437 531 296 531 C156 531 43 422 43 265 L43 257 C43 103 153 -8 295 -8 L295 -8 Z " />
<glyph glyph-name="p" unicode="p" horiz-adv-x="612" d="M82 -182 L135 -182 L135 119 C163 55 230 -8 334 -8 C469 -8 569 95 569 259 L569 267 C569 430 466 531 334 531 C242 531 165 469 135 401 L135 523 L82 523 L82 -182 Z M330 37 C221 37 134 114 134 257 L134 265 C134 409 227 486 329 486 C429 486 514 409 514 265 L514 257 C514 117 440 37 330 37 L330 37 Z " />
<glyph glyph-name="q" unicode="q" horiz-adv-x="612" d="M477 -182 L530 -182 L530 523 L477 523 L477 407 C447 472 389 531 286 531 C148 531 43 423 43 262 L43 254 C43 88 145 -8 278 -8 C376 -8 449 58 477 121 L477 -182 Z M283 37 C179 37 98 113 98 256 L98 264 C98 405 179 486 291 486 C400 486 478 410 478 266 L478 258 C478 114 389 37 283 37 L283 37 Z " />
<glyph glyph-name="r" unicode="r" horiz-adv-x="348" d="M82 0 L135 0 L135 290 C135 429 211 476 312 480 L312 530 C216 527 164 477 135 413 L135 523 L82 523 L82 0 Z " />
<glyph glyph-name="s" unicode="s" horiz-adv-x="465" d="M239 -9 C358 -9 423 55 423 143 C423 245 359 272 247 292 C140 311 104 333 104 393 C104 449 153 486 226 486 C302 486 345 456 358 389 L409 389 C395 492 321 531 227 531 C139 531 55 480 55 391 C55 301 107 268 235 245 C333 227 372 206 372 139 C372 76 327 36 239 36 C142 36 98 85 89 156 L38 156 C45 56 116 -9 239 -9 L239 -9 Z " />
<glyph glyph-name="t" unicode="t" horiz-adv-x="338" d="M230 -7 C262 -7 282 -2 299 4 L299 49 C281 43 260 38 233 38 C185 38 155 67 155 130 L155 478 L292 478 L292 523 L155 523 L155 642 L102 642 L102 523 L25 523 L25 478 L102 478 L102 126 C102 42 147 -7 230 -7 L230 -7 Z " />
<glyph glyph-name="u" unicode="u" horiz-adv-x="579" d="M261 -8 C353 -8 420 43 444 100 L444 0 L497 0 L497 523 L444 523 L444 205 C444 95 358 38 273 38 C182 38 130 84 130 195 L130 523 L77 523 L77 192 C77 48 153 -8 261 -8 L261 -8 Z " />
<glyph glyph-name="v" unicode="v" horiz-adv-x="518" d="M226 0 L295 0 L492 523 L438 523 L261 53 L83 523 L25 523 L226 0 Z " />
<glyph glyph-name="w" unicode="w" horiz-adv-x="776" d="M192 0 L252 0 L391 438 L521 0 L582 0 L747 523 L693 523 L552 65 L414 523 L369 523 L226 65 L86 523 L29 523 L192 0 Z " />
<glyph glyph-name="x" unicode="x" horiz-adv-x="511" d="M29 0 L87 0 L253 234 L419 0 L482 0 L284 274 L463 523 L404 523 L255 310 L104 523 L41 523 L223 270 L29 0 Z " />
<glyph glyph-name="y" unicode="y" horiz-adv-x="508" d="M137 -182 L192 -182 L482 523 L428 523 L261 106 L82 523 L25 523 L232 45 L137 -182 Z " />
<glyph glyph-name="z" unicode="z" horiz-adv-x="474" d="M24 0 L440 0 L440 47 L110 47 L447 513 L447 523 L54 523 L54 478 L364 478 L24 9 L24 0 Z " />
<glyph glyph-name="braceleft" unicode="&#x7b;" horiz-adv-x="363" d="M321 -146 L321 -104 C217 -103 168 -71 190 52 L213 172 C228 256 186 300 119 316 C186 332 228 376 213 460 L190 580 C168 703 217 735 321 736 L321 778 C184 778 112 726 140 579 L162 465 C176 395 146 337 42 336 L42 296 C146 295 176 237 162 167 L140 53 C112 -94 184 -146 321 -146 L321 -146 Z " />
<glyph glyph-name="bar" unicode="&#x7c;" horiz-adv-x="241" d="M98 -148 L143 -148 L143 776 L98 776 L98 -148 Z " />
<glyph glyph-name="braceright" unicode="&#x7d;" horiz-adv-x="363" d="M42 -146 C179 -146 251 -94 223 53 L200 167 C187 237 216 295 321 296 L321 336 C216 337 187 395 200 465 L223 579 C251 726 179 778 42 778 L42 736 C145 735 195 703 172 580 L150 460 C135 376 177 332 244 316 C177 300 135 256 150 172 L172 52 C195 -71 145 -103 42 -104 L42 -146 Z " />
<glyph glyph-name="asciitilde" unicode="&#x7e;" horiz-adv-x="438" d="M46 232 L90 232 C95 268 116 294 145 294 C188 294 230 234 297 234 C345 234 385 273 391 344 L347 344 C344 307 322 282 293 282 C250 282 207 342 143 342 C93 342 53 301 46 232 L46 232 Z " />
<glyph glyph-name="uni00A0" unicode="&#xa0;" horiz-adv-x="280" d="" />
<glyph glyph-name="exclamdown" unicode="&#xa1;" horiz-adv-x="272" d="M106 -117 L165 -117 L156 419 L114 419 L106 -117 Z M136 518 C160 518 179 537 179 561 C179 584 160 603 136 603 C113 603 94 584 94 561 C94 537 113 518 136 518 L136 518 Z " />
<glyph glyph-name="cent" unicode="&#xa2;" horiz-adv-x="553" d="M270 -135 L310 -135 L310 -7 C420 0 502 75 516 181 L467 181 C455 93 389 44 310 38 L310 485 C385 479 447 438 459 357 L511 357 C498 468 409 524 310 530 L310 629 L270 629 L270 530 C143 520 43 419 43 264 L43 256 C43 101 140 3 270 -7 L270 -135 Z M98 256 L98 264 C98 396 172 475 270 485 L270 38 C171 47 98 123 98 256 L98 256 Z " />
<glyph glyph-name="sterling" unicode="&#xa3;" horiz-adv-x="589" d="M49 327 L132 327 C145 283 156 240 156 191 C156 158 148 131 136 108 C76 96 47 44 42 0 L90 0 C95 35 121 65 168 65 C236 65 314 -8 406 -8 C492 -8 546 53 552 144 L504 144 C500 73 462 40 401 40 C337 40 263 97 188 109 C199 133 206 160 206 190 C206 243 197 286 187 327 L405 327 L405 368 L176 368 C164 414 153 461 153 519 C153 612 218 676 312 676 C411 676 455 627 469 540 L523 540 C513 649 441 723 312 723 C188 723 96 641 96 519 C96 461 107 413 120 368 L49 368 L49 327 Z " />
<glyph glyph-name="yen" unicode="&#xa5;" horiz-adv-x="548" d="M73 305 L254 305 L254 208 L73 208 L73 169 L254 169 L254 0 L308 0 L308 169 L488 169 L488 208 L308 208 L308 305 L488 305 L488 344 L317 344 L520 715 L466 715 L283 375 L88 715 L28 715 L244 344 L73 344 L73 305 Z " />
<glyph glyph-name="brokenbar" unicode="&#xa6;" horiz-adv-x="244" d="M98 -148 L143 -148 L143 297 L98 297 L98 -148 Z M98 367 L143 367 L143 776 L98 776 L98 367 Z " />
<glyph glyph-name="section" unicode="&#xa7;" horiz-adv-x="535" d="M266 -137 C367 -137 437 -72 437 17 C437 79 414 119 367 146 C441 166 489 214 489 282 C489 382 413 417 302 448 C189 480 156 507 156 573 C156 637 203 678 274 678 C352 678 383 641 389 578 L443 578 C437 671 375 724 273 724 C183 724 104 662 104 572 C104 506 129 472 174 444 C101 426 46 377 46 307 C46 210 121 172 231 143 C349 113 385 86 385 16 C385 -46 346 -91 265 -91 C186 -91 142 -51 136 16 L81 16 C86 -82 161 -137 266 -137 L266 -137 Z M325 169 L247 192 C153 218 99 243 99 311 C99 371 148 409 214 421 L291 398 C384 371 436 346 436 279 C436 220 397 185 325 169 L325 169 Z " />
<glyph glyph-name="dieresis" unicode="&#xa8;" horiz-adv-x="400" d="M117 636 C137 636 153 653 153 673 C153 693 137 709 117 709 C96 709 80 693 80 673 C80 653 96 636 117 636 L117 636 Z M283 636 C304 636 320 653 320 673 C320 693 304 709 283 709 C263 709 247 693 247 673 C247 653 263 636 283 636 L283 636 Z " />
<glyph glyph-name="copyright" unicode="&#xa9;" horiz-adv-x="844" d="M424 151 C516 151 586 201 598 293 L549 293 C538 229 490 194 424 194 C337 194 283 256 283 357 L283 363 C283 463 341 526 423 526 C490 526 531 494 542 435 L594 435 C582 523 512 568 423 568 C314 568 229 485 229 363 L229 356 C229 233 303 151 424 151 L424 151 Z M421 23 C244 23 92 162 92 357 C92 550 240 692 423 692 C606 692 752 551 752 359 C752 164 601 23 421 23 L421 23 Z M421 -9 C627 -9 789 151 789 359 C789 562 631 724 423 724 C217 724 55 561 55 357 C55 150 218 -9 421 -9 L421 -9 Z " />
<glyph glyph-name="ordfeminine" unicode="&#xaa;" horiz-adv-x="418" d="M176 302 C244 302 287 331 312 369 L312 309 L362 309 L362 577 C362 681 304 723 216 723 C135 723 64 685 55 601 L105 601 C115 655 154 681 213 681 C282 681 312 649 312 577 L312 544 L231 544 C127 544 37 514 37 419 C37 341 96 302 176 302 L176 302 Z M184 342 C119 342 88 370 88 420 C88 489 150 507 233 507 L312 507 L312 442 C312 383 255 342 184 342 L184 342 Z " />
<glyph glyph-name="guillemotleft" unicode="&#xab;" horiz-adv-x="448" d="M189 83 L243 83 L111 261 L243 439 L189 439 L54 261 L189 83 Z M347 83 L401 83 L269 261 L401 439 L347 439 L212 261 L347 83 Z " />
<glyph glyph-name="registered" unicode="&#xae;" horiz-adv-x="514" d="M183 393 L220 393 L220 486 L253 486 L314 393 L355 393 L290 492 C321 499 341 518 341 553 L341 554 C341 599 308 621 258 621 L183 621 L183 393 Z M220 514 L220 592 L257 592 C288 592 305 581 305 553 L305 552 C305 527 289 514 257 514 L220 514 Z M257 310 C150 310 66 389 66 502 C66 614 148 697 257 697 C367 697 448 615 448 503 C448 391 365 310 257 310 L257 310 Z M257 282 C381 282 479 378 479 503 C479 626 383 724 257 724 C133 724 35 625 35 502 C35 377 134 282 257 282 L257 282 Z " />
<glyph glyph-name="macron" unicode="&#xaf;" horiz-adv-x="400" d="M79 647 L321 647 L321 689 L79 689 L79 647 Z " />
<glyph glyph-name="degree" unicode="&#xb0;" horiz-adv-x="407" d="M204 466 C143 466 98 514 98 575 C98 636 143 685 204 685 C264 685 308 636 308 575 C308 514 264 466 204 466 L204 466 Z M204 427 C288 427 356 494 356 575 C356 657 288 724 204 724 C119 724 51 657 51 575 C51 494 119 427 204 427 L204 427 Z " />
<glyph glyph-name="plusminus" unicode="&#xb1;" horiz-adv-x="510" d="M231 131 L279 131 L279 330 L474 330 L474 375 L279 375 L279 574 L231 574 L231 375 L36 375 L36 330 L231 330 L231 131 Z M36 0 L474 0 L474 45 L36 45 L36 0 Z " />
<glyph glyph-name="twosuperior" unicode="&#xb2;" horiz-adv-x="287" d="M15 372 L255 372 L255 407 L89 407 L179 494 C227 540 251 574 251 621 C251 679 210 719 142 719 C74 719 29 677 25 606 L66 606 C72 656 97 684 141 684 C181 684 207 660 207 620 C207 584 186 554 145 512 L15 381 L15 372 Z " />
<glyph glyph-name="threesuperior" unicode="&#xb3;" horiz-adv-x="308" d="M153 368 C227 368 275 405 275 468 C275 515 245 544 205 553 C240 563 264 589 264 628 C264 680 222 719 155 719 C83 719 41 675 37 619 L77 619 C82 657 108 685 154 685 C196 685 221 661 221 626 C221 591 200 567 155 567 L130 567 L130 534 L157 534 C204 534 230 508 230 469 C230 427 202 402 152 402 C97 402 70 434 65 473 L24 473 C27 412 74 368 153 368 L153 368 Z " />
<glyph glyph-name="acute" unicode="&#xb4;" horiz-adv-x="400" d="M175 605 L216 605 L308 752 L243 752 L175 605 Z " />
<glyph glyph-name="paragraph" unicode="&#xb6;" horiz-adv-x="559" d="M271 -100 L316 -100 L316 677 L419 677 L419 -100 L465 -100 L465 715 L257 715 C137 715 45 655 45 530 C45 412 133 353 257 353 L271 353 L271 -100 Z " />
<glyph glyph-name="periodcentered" unicode="&#xb7;" horiz-adv-x="229" d="M114 281 C138 281 157 300 157 324 C157 347 138 366 114 366 C91 366 72 347 72 324 C72 300 91 281 114 281 L114 281 Z " />
<glyph glyph-name="cedilla" unicode="&#xb8;" horiz-adv-x="400" d="M210 -212 C262 -212 305 -185 305 -134 C305 -73 253 -50 204 -61 L239 0 L196 0 L151 -80 L177 -101 C183 -98 196 -93 213 -93 C235 -93 258 -103 258 -132 C258 -159 238 -176 208 -176 C179 -176 162 -157 158 -134 L114 -134 C119 -181 156 -212 210 -212 L210 -212 Z " />
<glyph glyph-name="onesuperior" unicode="&#xb9;" horiz-adv-x="217" d="M109 372 L154 372 L154 715 L117 715 L21 648 L21 607 L109 668 L109 372 Z " />
<glyph glyph-name="ordmasculine" unicode="&#xba;" horiz-adv-x="475" d="M238 344 C153 344 91 409 91 509 L91 515 C91 616 155 680 238 680 C322 680 384 618 384 516 L384 510 C384 408 322 344 238 344 L238 344 Z M237 302 C349 302 436 383 436 510 L436 516 C436 642 350 722 238 722 C127 722 39 640 39 515 L39 509 C39 387 125 302 237 302 L237 302 Z " />
<glyph glyph-name="guillemotright" unicode="&#xbb;" horiz-adv-x="448" d="M47 83 L101 83 L236 261 L101 439 L47 439 L179 261 L47 83 Z M205 83 L259 83 L394 261 L259 439 L205 439 L337 261 L205 83 Z " />
<glyph glyph-name="onequarter" unicode="&#xbc;" horiz-adv-x="661" d="M112 372 L157 372 L157 715 L120 715 L24 648 L24 607 L112 668 L112 372 Z M45 0 L90 0 L606 715 L561 715 L45 0 Z M543 0 L586 0 L586 74 L633 74 L633 108 L586 108 L586 343 L529 343 L365 90 L365 74 L543 74 L543 0 Z M416 108 L544 310 L544 108 L416 108 Z " />
<glyph glyph-name="onehalf" unicode="&#xbd;" horiz-adv-x="665" d="M29 0 L74 0 L590 715 L545 715 L29 0 Z M113 372 L158 372 L158 715 L121 715 L25 648 L25 607 L113 668 L113 372 Z M389 0 L629 0 L629 35 L463 35 L553 123 C601 168 625 203 625 249 C625 308 584 347 516 347 C448 347 403 305 399 234 L440 234 C446 285 471 312 515 312 C555 312 581 288 581 249 C581 212 560 182 519 141 L389 9 L389 0 Z " />
<glyph glyph-name="threequarters" unicode="&#xbe;" horiz-adv-x="675" d="M156 368 C230 368 278 405 278 468 C278 515 248 544 208 553 C243 563 267 589 267 628 C267 680 225 719 158 719 C86 719 44 675 40 619 L80 619 C85 657 111 685 157 685 C199 685 224 661 224 626 C224 591 203 567 158 567 L133 567 L133 534 L160 534 C207 534 233 508 233 469 C233 427 205 402 155 402 C100 402 73 434 68 473 L27 473 C30 412 77 368 156 368 L156 368 Z M86 0 L131 0 L647 715 L602 715 L86 0 Z M553 0 L596 0 L596 74 L643 74 L643 108 L596 108 L596 343 L539 343 L375 90 L375 74 L553 74 L553 0 Z M426 108 L554 310 L554 108 L426 108 Z " />
<glyph glyph-name="questiondown" unicode="&#xbf;" horiz-adv-x="477" d="M289 419 L241 419 L241 366 C241 299 202 262 151 211 C98 157 49 116 49 35 C49 -51 107 -125 233 -125 C350 -125 432 -47 439 70 L388 70 C381 -23 321 -80 234 -80 C145 -80 103 -31 103 37 C103 100 142 137 189 183 C244 238 289 282 289 362 L289 419 Z M266 603 C242 603 223 584 223 561 C223 537 242 518 266 518 C289 518 308 537 308 561 C308 584 289 603 266 603 L266 603 Z " />
<glyph glyph-name="Agrave" unicode="&#xc0;" horiz-adv-x="654" d="M33 0 L86 0 L164 219 L486 219 L565 0 L621 0 L364 715 L290 715 L33 0 Z M325 669 L470 264 L180 264 L325 669 Z M308 771 L350 771 L286 893 L220 893 L308 771 Z " />
<glyph glyph-name="Aacute" unicode="&#xc1;" horiz-adv-x="654" d="M33 0 L86 0 L164 219 L486 219 L565 0 L621 0 L364 715 L290 715 L33 0 Z M325 669 L470 264 L180 264 L325 669 Z M295 771 L337 771 L425 893 L359 893 L295 771 Z " />
<glyph glyph-name="Acircumflex" unicode="&#xc2;" horiz-adv-x="654" d="M33 0 L86 0 L164 219 L486 219 L565 0 L621 0 L364 715 L290 715 L33 0 Z M325 669 L470 264 L180 264 L325 669 Z M189 771 L230 771 L323 849 L415 771 L457 771 L349 893 L299 893 L189 771 Z " />
<glyph glyph-name="Atilde" unicode="&#xc3;" horiz-adv-x="654" d="M33 0 L86 0 L164 219 L486 219 L565 0 L621 0 L364 715 L290 715 L33 0 Z M325 669 L470 264 L180 264 L325 669 Z M385 774 C428 774 463 809 471 873 L431 873 C426 839 407 819 385 819 C349 819 309 872 262 872 C218 872 183 837 175 773 L216 773 C221 807 239 827 262 827 C297 827 337 774 385 774 L385 774 Z " />
<glyph glyph-name="Adieresis" unicode="&#xc4;" horiz-adv-x="654" d="M33 0 L86 0 L164 219 L486 219 L565 0 L621 0 L364 715 L290 715 L33 0 Z M325 669 L470 264 L180 264 L325 669 Z M233 788 C253 788 269 805 269 825 C269 844 253 861 233 861 C212 861 196 844 196 825 C196 805 212 788 233 788 L233 788 Z M413 788 C433 788 449 805 449 825 C449 844 433 861 413 861 C393 861 377 844 377 825 C377 805 393 788 413 788 L413 788 Z " />
<glyph glyph-name="Aring" unicode="&#xc5;" horiz-adv-x="654" d="M33 0 L86 0 L164 219 L486 219 L565 0 L621 0 L364 715 L290 715 L33 0 Z M325 669 L470 264 L180 264 L325 669 Z M323 754 C377 754 421 798 421 850 C421 902 377 945 323 945 C270 945 225 902 225 850 C225 798 270 754 323 754 L323 754 Z M323 786 C289 786 262 814 262 850 C262 886 289 914 323 914 C358 914 384 886 384 850 C384 814 358 786 323 786 L323 786 Z " />
<glyph glyph-name="AE" unicode="&#xc6;" horiz-adv-x="946" d="M29 0 L86 0 L196 220 L472 220 L472 0 L901 0 L901 46 L528 46 L528 344 L816 344 L816 390 L528 390 L528 669 L883 669 L883 715 L392 715 L29 0 Z M421 669 L472 669 L472 264 L218 264 L421 669 Z " />
<glyph glyph-name="Ccedilla" unicode="&#xc7;" horiz-adv-x="725" d="M371 -212 C423 -212 466 -185 466 -134 C466 -73 414 -50 365 -61 L395 -8 C544 -4 656 79 682 230 L630 230 C607 107 515 39 386 39 C216 39 110 161 110 354 L110 362 C110 551 226 679 386 679 C518 679 596 615 618 500 L674 500 C652 647 533 724 385 724 C198 724 53 572 53 361 L53 353 C53 148 167 7 353 -7 L312 -80 L338 -101 C344 -98 357 -93 374 -93 C396 -93 419 -103 419 -132 C419 -159 399 -176 369 -176 C340 -176 323 -157 319 -134 L275 -134 C280 -181 317 -212 371 -212 L371 -212 Z " />
<glyph glyph-name="Egrave" unicode="&#xc8;" horiz-adv-x="566" d="M284 771 L326 771 L262 893 L196 893 L284 771 Z M92 0 L521 0 L521 46 L148 46 L148 344 L436 344 L436 390 L148 390 L148 669 L503 669 L503 715 L92 715 L92 0 Z " />
<glyph glyph-name="Eacute" unicode="&#xc9;" horiz-adv-x="566" d="M271 771 L313 771 L401 893 L335 893 L271 771 Z M92 0 L521 0 L521 46 L148 46 L148 344 L436 344 L436 390 L148 390 L148 669 L503 669 L503 715 L92 715 L92 0 Z " />
<glyph glyph-name="Ecircumflex" unicode="&#xca;" horiz-adv-x="566" d="M165 771 L206 771 L299 849 L391 771 L433 771 L325 893 L275 893 L165 771 Z M92 0 L521 0 L521 46 L148 46 L148 344 L436 344 L436 390 L148 390 L148 669 L503 669 L503 715 L92 715 L92 0 Z " />
<glyph glyph-name="Edieresis" unicode="&#xcb;" horiz-adv-x="566" d="M92 0 L521 0 L521 46 L148 46 L148 344 L436 344 L436 390 L148 390 L148 669 L503 669 L503 715 L92 715 L92 0 Z M209 788 C229 788 245 805 245 825 C245 844 229 861 209 861 C188 861 172 844 172 825 C172 805 188 788 209 788 L209 788 Z M389 788 C409 788 425 805 425 825 C425 844 409 861 389 861 C369 861 353 844 353 825 C353 805 369 788 389 788 L389 788 Z " />
<glyph glyph-name="Igrave" unicode="&#xcc;" horiz-adv-x="250" d="M97 0 L153 0 L153 715 L97 715 L97 0 Z M110 771 L152 771 L88 893 L22 893 L110 771 Z " />
<glyph glyph-name="Iacute" unicode="&#xcd;" horiz-adv-x="250" d="M97 0 L153 0 L153 715 L97 715 L97 0 Z M97 771 L139 771 L227 893 L161 893 L97 771 Z " />
<glyph glyph-name="Icircumflex" unicode="&#xce;" horiz-adv-x="250" d="M97 0 L153 0 L153 715 L97 715 L97 0 Z M-9 771 L32 771 L125 849 L217 771 L259 771 L151 893 L101 893 L-9 771 Z " />
<glyph glyph-name="Idieresis" unicode="&#xcf;" horiz-adv-x="250" d="M97 0 L153 0 L153 715 L97 715 L97 0 Z M35 788 C55 788 71 805 71 825 C71 844 55 861 35 861 C14 861 -2 844 -2 825 C-2 805 14 788 35 788 L35 788 Z M215 788 C235 788 251 805 251 825 C251 844 235 861 215 861 C195 861 179 844 179 825 C179 805 195 788 215 788 L215 788 Z " />
<glyph glyph-name="Eth" unicode="&#xd0;" horiz-adv-x="697" d="M28 337 L103 337 L103 0 L286 0 C531 0 644 157 644 355 L644 364 C644 563 525 715 288 715 L103 715 L103 381 L28 381 L28 337 Z M159 46 L159 337 L367 337 L367 381 L159 381 L159 669 L283 669 C494 669 587 540 587 364 L587 356 C587 174 488 46 284 46 L159 46 Z " />
<glyph glyph-name="Ntilde" unicode="&#xd1;" horiz-adv-x="713" d="M429 774 C472 774 507 809 515 873 L475 873 C470 839 451 819 429 819 C393 819 353 872 306 872 C262 872 227 837 219 773 L260 773 C265 807 283 827 306 827 C341 827 381 774 429 774 L429 774 Z M92 0 L146 0 L146 653 L555 0 L621 0 L621 715 L568 715 L568 77 L168 715 L92 715 L92 0 Z " />
<glyph glyph-name="Ograve" unicode="&#xd2;" horiz-adv-x="801" d="M385 771 L427 771 L363 893 L297 893 L385 771 Z M403 39 C237 39 110 172 110 354 L110 362 C110 542 226 677 401 677 C576 677 691 538 691 364 L691 356 C691 173 574 39 403 39 L403 39 Z M403 -8 C603 -8 749 153 749 355 L749 363 C749 564 603 723 401 723 C200 723 53 564 53 361 L53 353 C53 153 199 -8 403 -8 L403 -8 Z " />
<glyph glyph-name="Oacute" unicode="&#xd3;" horiz-adv-x="801" d="M372 771 L414 771 L502 893 L436 893 L372 771 Z M403 39 C237 39 110 172 110 354 L110 362 C110 542 226 677 401 677 C576 677 691 538 691 364 L691 356 C691 173 574 39 403 39 L403 39 Z M403 -8 C603 -8 749 153 749 355 L749 363 C749 564 603 723 401 723 C200 723 53 564 53 361 L53 353 C53 153 199 -8 403 -8 L403 -8 Z " />
<glyph glyph-name="Ocircumflex" unicode="&#xd4;" horiz-adv-x="801" d="M266 771 L307 771 L400 849 L492 771 L534 771 L426 893 L376 893 L266 771 Z M403 39 C237 39 110 172 110 354 L110 362 C110 542 226 677 401 677 C576 677 691 538 691 364 L691 356 C691 173 574 39 403 39 L403 39 Z M403 -8 C603 -8 749 153 749 355 L749 363 C749 564 603 723 401 723 C200 723 53 564 53 361 L53 353 C53 153 199 -8 403 -8 L403 -8 Z " />
<glyph glyph-name="Otilde" unicode="&#xd5;" horiz-adv-x="801" d="M462 774 C505 774 540 809 548 873 L508 873 C503 839 484 819 462 819 C426 819 386 872 339 872 C295 872 260 837 252 773 L293 773 C298 807 316 827 339 827 C374 827 414 774 462 774 L462 774 Z M403 39 C237 39 110 172 110 354 L110 362 C110 542 226 677 401 677 C576 677 691 538 691 364 L691 356 C691 173 574 39 403 39 L403 39 Z M403 -8 C603 -8 749 153 749 355 L749 363 C749 564 603 723 401 723 C200 723 53 564 53 361 L53 353 C53 153 199 -8 403 -8 L403 -8 Z " />
<glyph glyph-name="Odieresis" unicode="&#xd6;" horiz-adv-x="801" d="M310 788 C330 788 346 805 346 825 C346 844 330 861 310 861 C289 861 273 844 273 825 C273 805 289 788 310 788 L310 788 Z M490 788 C510 788 526 805 526 825 C526 844 510 861 490 861 C470 861 454 844 454 825 C454 805 470 788 490 788 L490 788 Z M403 39 C237 39 110 172 110 354 L110 362 C110 542 226 677 401 677 C576 677 691 538 691 364 L691 356 C691 173 574 39 403 39 L403 39 Z M403 -8 C603 -8 749 153 749 355 L749 363 C749 564 603 723 401 723 C200 723 53 564 53 361 L53 353 C53 153 199 -8 403 -8 L403 -8 Z " />
<glyph glyph-name="multiply" unicode="&#xd7;" horiz-adv-x="483" d="M76 143 L237 303 L398 143 L429 174 L268 334 L429 495 L398 527 L237 366 L76 527 L45 495 L206 334 L45 174 L76 143 Z " />
<glyph glyph-name="Oslash" unicode="&#xd8;" horiz-adv-x="801" d="M71 -24 L167 82 C227 26 309 -8 403 -8 C603 -8 749 153 749 355 L749 363 C749 462 713 552 652 617 L736 709 L707 739 L622 645 C563 694 487 723 401 723 C200 723 53 564 53 361 L53 353 C53 260 84 176 138 112 L41 5 L71 -24 Z M403 39 C323 39 253 68 201 119 L618 580 C665 525 691 450 691 364 L691 356 C691 173 574 39 403 39 L403 39 Z M110 354 L110 362 C110 542 226 677 401 677 C476 677 541 652 589 609 L173 151 C133 204 110 273 110 354 L110 354 Z " />
<glyph glyph-name="Ugrave" unicode="&#xd9;" horiz-adv-x="682" d="M326 771 L368 771 L304 893 L238 893 L326 771 Z M338 -7 C516 -7 601 96 601 267 L601 715 L545 715 L545 275 C545 106 476 40 339 40 C206 40 137 109 137 262 L137 715 L82 715 L82 256 C82 85 177 -7 338 -7 L338 -7 Z " />
<glyph glyph-name="Uacute" unicode="&#xda;" horiz-adv-x="682" d="M313 771 L355 771 L443 893 L377 893 L313 771 Z M338 -7 C516 -7 601 96 601 267 L601 715 L545 715 L545 275 C545 106 476 40 339 40 C206 40 137 109 137 262 L137 715 L82 715 L82 256 C82 85 177 -7 338 -7 L338 -7 Z " />
<glyph glyph-name="Ucircumflex" unicode="&#xdb;" horiz-adv-x="682" d="M207 771 L248 771 L341 849 L433 771 L475 771 L367 893 L317 893 L207 771 Z M338 -7 C516 -7 601 96 601 267 L601 715 L545 715 L545 275 C545 106 476 40 339 40 C206 40 137 109 137 262 L137 715 L82 715 L82 256 C82 85 177 -7 338 -7 L338 -7 Z " />
<glyph glyph-name="Udieresis" unicode="&#xdc;" horiz-adv-x="682" d="M338 -7 C516 -7 601 96 601 267 L601 715 L545 715 L545 275 C545 106 476 40 339 40 C206 40 137 109 137 262 L137 715 L82 715 L82 256 C82 85 177 -7 338 -7 L338 -7 Z M251 788 C271 788 287 805 287 825 C287 844 271 861 251 861 C230 861 214 844 214 825 C214 805 230 788 251 788 L251 788 Z M431 788 C451 788 467 805 467 825 C467 844 451 861 431 861 C411 861 395 844 395 825 C395 805 411 788 431 788 L431 788 Z " />
<glyph glyph-name="Yacute" unicode="&#xdd;" horiz-adv-x="578" d="M268 0 L324 0 L324 317 L555 715 L499 715 L297 365 L85 715 L23 715 L268 318 L268 0 Z M264 771 L306 771 L394 893 L328 893 L264 771 Z " />
<glyph glyph-name="Thorn" unicode="&#xde;" horiz-adv-x="568" d="M92 0 L148 0 L148 172 L281 172 C420 172 525 225 525 371 L525 375 C525 519 420 571 281 571 L148 571 L148 715 L92 715 L92 0 Z M148 217 L148 525 L284 525 C396 525 469 489 469 375 L469 371 C469 261 400 217 284 217 L148 217 Z " />
<glyph glyph-name="germandbls" unicode="&#xdf;" horiz-adv-x="570" d="M320 -7 C425 -7 529 46 529 209 L529 215 C529 333 443 420 340 441 C421 464 468 531 468 603 L468 607 C468 705 397 776 281 776 C169 776 82 697 82 572 L82 0 L135 0 L135 574 C135 670 190 732 281 732 C370 732 417 683 417 607 L417 603 C417 533 370 459 258 461 L258 415 C382 418 474 333 474 215 L474 208 C474 75 395 38 318 38 C280 38 250 45 226 55 L226 9 C247 1 279 -7 320 -7 L320 -7 Z " />
<glyph glyph-name="agrave" unicode="&#xe0;" horiz-adv-x="529" d="M221 -8 C309 -8 365 29 398 80 L398 0 L451 0 L451 346 C451 479 377 531 268 531 C169 531 79 485 67 375 L119 375 C131 452 187 486 266 486 C358 486 398 444 398 346 L398 299 L289 299 C160 299 44 262 44 141 C44 42 118 -8 221 -8 L221 -8 Z M225 35 C139 35 97 74 97 141 C97 235 182 258 291 258 L398 258 L398 169 C398 91 321 35 225 35 L225 35 Z M253 605 L294 605 L226 752 L161 752 L253 605 Z " />
<glyph glyph-name="aacute" unicode="&#xe1;" horiz-adv-x="529" d="M221 -8 C309 -8 365 29 398 80 L398 0 L451 0 L451 346 C451 479 377 531 268 531 C169 531 79 485 67 375 L119 375 C131 452 187 486 266 486 C358 486 398 444 398 346 L398 299 L289 299 C160 299 44 262 44 141 C44 42 118 -8 221 -8 L221 -8 Z M225 35 C139 35 97 74 97 141 C97 235 182 258 291 258 L398 258 L398 169 C398 91 321 35 225 35 L225 35 Z M240 605 L281 605 L373 752 L308 752 L240 605 Z " />
<glyph glyph-name="acircumflex" unicode="&#xe2;" horiz-adv-x="529" d="M221 -8 C309 -8 365 29 398 80 L398 0 L451 0 L451 346 C451 479 377 531 268 531 C169 531 79 485 67 375 L119 375 C131 452 187 486 266 486 C358 486 398 444 398 346 L398 299 L289 299 C160 299 44 262 44 141 C44 42 118 -8 221 -8 L221 -8 Z M225 35 C139 35 97 74 97 141 C97 235 182 258 291 258 L398 258 L398 169 C398 91 321 35 225 35 L225 35 Z M128 605 L169 605 L262 695 L354 605 L396 605 L288 740 L238 740 L128 605 Z " />
<glyph glyph-name="atilde" unicode="&#xe3;" horiz-adv-x="529" d="M221 -8 C309 -8 365 29 398 80 L398 0 L451 0 L451 346 C451 479 377 531 268 531 C169 531 79 485 67 375 L119 375 C131 452 187 486 266 486 C358 486 398 444 398 346 L398 299 L289 299 C160 299 44 262 44 141 C44 42 118 -8 221 -8 L221 -8 Z M225 35 C139 35 97 74 97 141 C97 235 182 258 291 258 L398 258 L398 169 C398 91 321 35 225 35 L225 35 Z M330 616 C373 616 408 652 416 715 L376 715 C371 681 351 662 330 662 C295 662 254 715 207 715 C163 715 128 679 120 616 L161 616 C166 649 185 669 206 669 C241 669 282 616 330 616 L330 616 Z " />
<glyph glyph-name="adieresis" unicode="&#xe4;" horiz-adv-x="529" d="M221 -8 C309 -8 365 29 398 80 L398 0 L451 0 L451 346 C451 479 377 531 268 531 C169 531 79 485 67 375 L119 375 C131 452 187 486 266 486 C358 486 398 444 398 346 L398 299 L289 299 C160 299 44 262 44 141 C44 42 118 -8 221 -8 L221 -8 Z M225 35 C139 35 97 74 97 141 C97 235 182 258 291 258 L398 258 L398 169 C398 91 321 35 225 35 L225 35 Z M185 636 C205 636 221 653 221 673 C221 693 205 709 185 709 C164 709 148 693 148 673 C148 653 164 636 185 636 L185 636 Z M351 636 C372 636 388 653 388 673 C388 693 372 709 351 709 C331 709 315 693 315 673 C315 653 331 636 351 636 L351 636 Z " />
<glyph glyph-name="aring" unicode="&#xe5;" horiz-adv-x="529" d="M221 -8 C309 -8 365 29 398 80 L398 0 L451 0 L451 346 C451 479 377 531 268 531 C169 531 79 485 67 375 L119 375 C131 452 187 486 266 486 C358 486 398 444 398 346 L398 299 L289 299 C160 299 44 262 44 141 C44 42 118 -8 221 -8 L221 -8 Z M225 35 C139 35 97 74 97 141 C97 235 182 258 291 258 L398 258 L398 169 C398 91 321 35 225 35 L225 35 Z M268 633 C234 633 207 660 207 696 C207 733 234 760 268 760 C303 760 329 733 329 696 C329 660 303 633 268 633 L268 633 Z M268 601 C322 601 366 644 366 696 C366 748 322 792 268 792 C215 792 170 748 170 696 C170 644 215 601 268 601 L268 601 Z " />
<glyph glyph-name="ae" unicode="&#xe6;" horiz-adv-x="897" d="M638 -8 C747 -8 830 46 851 146 L798 146 C781 73 724 37 639 37 C517 37 454 118 452 258 L855 258 L855 276 C855 450 755 531 632 531 C546 531 478 488 439 417 C417 498 354 531 268 531 C170 531 79 485 67 375 L119 375 C131 452 187 486 266 486 C357 486 400 443 400 345 L400 299 L287 299 C158 299 44 262 44 140 C44 41 118 -8 221 -8 C318 -8 395 35 429 123 C465 42 538 -8 638 -8 L638 -8 Z M226 35 C139 35 97 73 97 140 C97 234 179 258 288 258 L400 258 L400 181 C400 91 321 35 226 35 L226 35 Z M453 299 C463 413 533 486 632 486 C732 486 796 427 801 299 L453 299 Z " />
<glyph glyph-name="ccedilla" unicode="&#xe7;" horiz-adv-x="556" d="M274 -212 C326 -212 369 -185 369 -134 C369 -73 317 -50 268 -61 L298 -8 C415 -5 502 70 516 181 L467 181 C454 87 380 37 293 37 C183 37 98 118 98 256 L98 264 C98 402 184 486 293 486 C375 486 446 445 459 357 L511 357 C497 475 399 531 293 531 C155 531 43 424 43 264 L43 256 C43 111 134 11 257 -5 L215 -80 L241 -101 C247 -98 260 -93 277 -93 C299 -93 322 -103 322 -132 C322 -159 302 -176 272 -176 C243 -176 226 -157 222 -134 L178 -134 C183 -181 220 -212 274 -212 L274 -212 Z " />
<glyph glyph-name="egrave" unicode="&#xe8;" horiz-adv-x="554" d="M291 -8 C403 -8 486 46 508 146 L455 146 C437 73 378 37 291 37 C167 37 100 117 98 257 L512 257 L512 276 C512 449 409 531 283 531 C143 531 43 422 43 264 L43 256 C43 99 140 -8 291 -8 L291 -8 Z M100 300 C110 414 182 486 283 486 C385 486 452 427 457 300 L100 300 Z M267 605 L308 605 L240 752 L175 752 L267 605 Z " />
<glyph glyph-name="eacute" unicode="&#xe9;" horiz-adv-x="554" d="M254 605 L295 605 L387 752 L322 752 L254 605 Z M291 -8 C403 -8 486 46 508 146 L455 146 C437 73 378 37 291 37 C167 37 100 117 98 257 L512 257 L512 276 C512 449 409 531 283 531 C143 531 43 422 43 264 L43 256 C43 99 140 -8 291 -8 L291 -8 Z M100 300 C110 414 182 486 283 486 C385 486 452 427 457 300 L100 300 Z " />
<glyph glyph-name="ecircumflex" unicode="&#xea;" horiz-adv-x="554" d="M148 605 L189 605 L282 695 L374 605 L416 605 L308 740 L258 740 L148 605 Z M291 -8 C403 -8 486 46 508 146 L455 146 C437 73 378 37 291 37 C167 37 100 117 98 257 L512 257 L512 276 C512 449 409 531 283 531 C143 531 43 422 43 264 L43 256 C43 99 140 -8 291 -8 L291 -8 Z M100 300 C110 414 182 486 283 486 C385 486 452 427 457 300 L100 300 Z " />
<glyph glyph-name="edieresis" unicode="&#xeb;" horiz-adv-x="554" d="M199 636 C219 636 235 653 235 673 C235 693 219 709 199 709 C178 709 162 693 162 673 C162 653 178 636 199 636 L199 636 Z M365 636 C386 636 402 653 402 673 C402 693 386 709 365 709 C345 709 329 693 329 673 C329 653 345 636 365 636 L365 636 Z M291 -8 C403 -8 486 46 508 146 L455 146 C437 73 378 37 291 37 C167 37 100 117 98 257 L512 257 L512 276 C512 449 409 531 283 531 C143 531 43 422 43 264 L43 256 C43 99 140 -8 291 -8 L291 -8 Z M100 300 C110 414 182 486 283 486 C385 486 452 427 457 300 L100 300 Z " />
<glyph glyph-name="igrave" unicode="&#xec;" horiz-adv-x="221" d="M84 0 L137 0 L137 523 L84 523 L84 0 Z M93 605 L134 605 L66 752 L1 752 L93 605 Z " />
<glyph glyph-name="iacute" unicode="&#xed;" horiz-adv-x="221" d="M86 605 L127 605 L219 752 L154 752 L86 605 Z M84 0 L137 0 L137 523 L84 523 L84 0 Z " />
<glyph glyph-name="icircumflex" unicode="&#xee;" horiz-adv-x="221" d="M-23 605 L18 605 L111 695 L203 605 L245 605 L137 740 L87 740 L-23 605 Z M84 0 L137 0 L137 523 L84 523 L84 0 Z " />
<glyph glyph-name="idieresis" unicode="&#xef;" horiz-adv-x="221" d="M36 636 C56 636 73 653 73 673 C73 693 56 709 36 709 C16 709 0 693 0 673 C0 653 16 636 36 636 L36 636 Z M185 636 C205 636 221 653 221 673 C221 693 205 709 185 709 C165 709 148 693 148 673 C148 653 165 636 185 636 L185 636 Z M84 0 L137 0 L137 523 L84 523 L84 0 Z " />
<glyph glyph-name="eth" unicode="&#xf0;" horiz-adv-x="594" d="M159 584 L291 660 C364 595 425 521 462 440 C424 492 369 531 282 531 C156 531 43 422 43 265 L43 257 C43 103 153 -8 295 -8 C436 -8 548 102 548 260 L548 278 C548 453 442 593 334 685 L421 735 L402 768 L304 710 C270 736 237 757 208 773 L137 773 C180 746 222 717 261 685 L140 615 L159 584 Z M295 37 C182 37 98 123 98 257 L98 265 C98 401 184 486 293 486 C409 486 493 402 493 271 L493 258 C493 122 408 37 295 37 L295 37 Z " />
<glyph glyph-name="ntilde" unicode="&#xf1;" horiz-adv-x="583" d="M82 0 L135 0 L135 317 C135 427 221 485 308 485 C401 485 453 436 453 325 L453 0 L506 0 L506 322 C506 471 431 531 320 531 C227 531 159 478 135 421 L135 523 L82 523 L82 0 Z M352 616 C395 616 430 652 438 715 L398 715 C393 681 373 662 352 662 C317 662 276 715 229 715 C185 715 150 679 142 616 L183 616 C188 649 207 669 228 669 C263 669 304 616 352 616 L352 616 Z " />
<glyph glyph-name="ograve" unicode="&#xf2;" horiz-adv-x="591" d="M296 37 C182 37 98 123 98 257 L98 265 C98 401 184 486 296 486 C407 486 493 403 493 265 L493 257 C493 122 408 37 296 37 L296 37 Z M295 -8 C436 -8 548 100 548 258 L548 266 C548 425 437 531 296 531 C156 531 43 422 43 265 L43 257 C43 103 153 -8 295 -8 L295 -8 Z M280 605 L321 605 L253 752 L188 752 L280 605 Z " />
<glyph glyph-name="oacute" unicode="&#xf3;" horiz-adv-x="591" d="M267 605 L308 605 L400 752 L335 752 L267 605 Z M296 37 C182 37 98 123 98 257 L98 265 C98 401 184 486 296 486 C407 486 493 403 493 265 L493 257 C493 122 408 37 296 37 L296 37 Z M295 -8 C436 -8 548 100 548 258 L548 266 C548 425 437 531 296 531 C156 531 43 422 43 265 L43 257 C43 103 153 -8 295 -8 L295 -8 Z " />
<glyph glyph-name="ocircumflex" unicode="&#xf4;" horiz-adv-x="591" d="M161 605 L202 605 L295 695 L387 605 L429 605 L321 740 L271 740 L161 605 Z M296 37 C182 37 98 123 98 257 L98 265 C98 401 184 486 296 486 C407 486 493 403 493 265 L493 257 C493 122 408 37 296 37 L296 37 Z M295 -8 C436 -8 548 100 548 258 L548 266 C548 425 437 531 296 531 C156 531 43 422 43 265 L43 257 C43 103 153 -8 295 -8 L295 -8 Z " />
<glyph glyph-name="otilde" unicode="&#xf5;" horiz-adv-x="591" d="M296 37 C182 37 98 123 98 257 L98 265 C98 401 184 486 296 486 C407 486 493 403 493 265 L493 257 C493 122 408 37 296 37 L296 37 Z M295 -8 C436 -8 548 100 548 258 L548 266 C548 425 437 531 296 531 C156 531 43 422 43 265 L43 257 C43 103 153 -8 295 -8 L295 -8 Z M357 616 C400 616 435 652 443 715 L403 715 C398 681 378 662 357 662 C322 662 281 715 234 715 C190 715 155 679 147 616 L188 616 C193 649 212 669 233 669 C268 669 309 616 357 616 L357 616 Z " />
<glyph glyph-name="odieresis" unicode="&#xf6;" horiz-adv-x="591" d="M212 636 C232 636 248 653 248 673 C248 693 232 709 212 709 C191 709 175 693 175 673 C175 653 191 636 212 636 L212 636 Z M378 636 C399 636 415 653 415 673 C415 693 399 709 378 709 C358 709 342 693 342 673 C342 653 358 636 378 636 L378 636 Z M296 37 C182 37 98 123 98 257 L98 265 C98 401 184 486 296 486 C407 486 493 403 493 265 L493 257 C493 122 408 37 296 37 L296 37 Z M295 -8 C436 -8 548 100 548 258 L548 266 C548 425 437 531 296 531 C156 531 43 422 43 265 L43 257 C43 103 153 -8 295 -8 L295 -8 Z " />
<glyph glyph-name="divide" unicode="&#xf7;" horiz-adv-x="510" d="M255 122 C278 122 297 141 297 165 C297 188 278 207 255 207 C231 207 212 188 212 165 C212 141 231 122 255 122 L255 122 Z M36 319 L474 319 L474 365 L36 365 L36 319 Z M255 477 C278 477 297 496 297 520 C297 543 278 562 255 562 C231 562 212 543 212 520 C212 496 231 477 255 477 L255 477 Z " />
<glyph glyph-name="oslash" unicode="&#xf8;" horiz-adv-x="591" d="M61 -25 L130 52 C174 14 231 -8 295 -8 C436 -8 548 100 548 258 L548 266 C548 339 524 401 485 447 L551 520 L522 545 L458 473 C414 510 358 531 296 531 C156 531 43 422 43 265 L43 257 C43 187 65 126 103 80 L31 0 L61 -25 Z M296 37 C243 37 197 55 162 88 L451 409 C477 372 493 323 493 265 L493 257 C493 122 408 37 296 37 L296 37 Z M98 257 L98 265 C98 401 184 486 296 486 C346 486 391 469 425 437 L137 118 C112 154 98 201 98 257 L98 257 Z " />
<glyph glyph-name="ugrave" unicode="&#xf9;" horiz-adv-x="579" d="M261 -8 C353 -8 420 43 444 100 L444 0 L497 0 L497 523 L444 523 L444 205 C444 95 358 38 273 38 C182 38 130 84 130 195 L130 523 L77 523 L77 192 C77 48 153 -8 261 -8 L261 -8 Z M274 605 L315 605 L247 752 L182 752 L274 605 Z " />
<glyph glyph-name="uacute" unicode="&#xfa;" horiz-adv-x="579" d="M261 605 L302 605 L394 752 L329 752 L261 605 Z M261 -8 C353 -8 420 43 444 100 L444 0 L497 0 L497 523 L444 523 L444 205 C444 95 358 38 273 38 C182 38 130 84 130 195 L130 523 L77 523 L77 192 C77 48 153 -8 261 -8 L261 -8 Z " />
<glyph glyph-name="ucircumflex" unicode="&#xfb;" horiz-adv-x="579" d="M155 605 L196 605 L289 695 L381 605 L423 605 L315 740 L265 740 L155 605 Z M261 -8 C353 -8 420 43 444 100 L444 0 L497 0 L497 523 L444 523 L444 205 C444 95 358 38 273 38 C182 38 130 84 130 195 L130 523 L77 523 L77 192 C77 48 153 -8 261 -8 L261 -8 Z " />
<glyph glyph-name="udieresis" unicode="&#xfc;" horiz-adv-x="579" d="M206 636 C226 636 242 653 242 673 C242 693 226 709 206 709 C185 709 169 693 169 673 C169 653 185 636 206 636 L206 636 Z M372 636 C393 636 409 653 409 673 C409 693 393 709 372 709 C352 709 336 693 336 673 C336 653 352 636 372 636 L372 636 Z M261 -8 C353 -8 420 43 444 100 L444 0 L497 0 L497 523 L444 523 L444 205 C444 95 358 38 273 38 C182 38 130 84 130 195 L130 523 L77 523 L77 192 C77 48 153 -8 261 -8 L261 -8 Z " />
<glyph glyph-name="yacute" unicode="&#xfd;" horiz-adv-x="508" d="M137 -182 L192 -182 L482 523 L428 523 L261 106 L82 523 L25 523 L232 45 L137 -182 Z M229 605 L270 605 L362 752 L297 752 L229 605 Z " />
<glyph glyph-name="thorn" unicode="&#xfe;" horiz-adv-x="612" d="M82 -182 L135 -182 L135 119 C163 55 230 -8 334 -8 C469 -8 569 95 569 259 L569 267 C569 430 467 531 335 531 C243 531 166 470 135 401 L135 773 L82 773 L82 -182 Z M330 37 C221 37 134 114 134 257 L134 265 C134 409 226 486 330 486 C430 486 514 409 514 265 L514 257 C514 117 440 37 330 37 L330 37 Z " />
<glyph glyph-name="ydieresis" unicode="&#xff;" horiz-adv-x="508" d="M137 -182 L192 -182 L482 523 L428 523 L261 106 L82 523 L25 523 L232 45 L137 -182 Z M176 636 C196 636 212 653 212 673 C212 693 196 709 176 709 C155 709 139 693 139 673 C139 653 155 636 176 636 L176 636 Z M342 636 C363 636 379 653 379 673 C379 693 363 709 342 709 C322 709 306 693 306 673 C306 653 322 636 342 636 L342 636 Z " />
<glyph glyph-name="Amacron" unicode="&#x100;" horiz-adv-x="654" d="M33 0 L86 0 L164 219 L486 219 L565 0 L621 0 L364 715 L290 715 L33 0 Z M325 669 L470 264 L180 264 L325 669 Z M199 791 L447 791 L447 833 L199 833 L199 791 Z " />
<glyph glyph-name="amacron" unicode="&#x101;" horiz-adv-x="529" d="M221 -8 C309 -8 365 29 398 80 L398 0 L451 0 L451 346 C451 479 377 531 268 531 C169 531 79 485 67 375 L119 375 C131 452 187 486 266 486 C358 486 398 444 398 346 L398 299 L289 299 C160 299 44 262 44 141 C44 42 118 -8 221 -8 L221 -8 Z M225 35 C139 35 97 74 97 141 C97 235 182 258 291 258 L398 258 L398 169 C398 91 321 35 225 35 L225 35 Z M147 647 L389 647 L389 689 L147 689 L147 647 Z " />
<glyph glyph-name="Abreve" unicode="&#x102;" horiz-adv-x="654" d="M33 0 L86 0 L164 219 L486 219 L565 0 L621 0 L364 715 L290 715 L33 0 Z M325 669 L470 264 L180 264 L325 669 Z M321 771 C388 771 446 823 450 893 L407 893 C401 847 368 815 321 815 C275 815 244 847 239 893 L195 893 C199 823 253 771 321 771 L321 771 Z " />
<glyph glyph-name="abreve" unicode="&#x103;" horiz-adv-x="529" d="M221 -8 C309 -8 365 29 398 80 L398 0 L451 0 L451 346 C451 479 377 531 268 531 C169 531 79 485 67 375 L119 375 C131 452 187 486 266 486 C358 486 398 444 398 346 L398 299 L289 299 C160 299 44 262 44 141 C44 42 118 -8 221 -8 L221 -8 Z M225 35 C139 35 97 74 97 141 C97 235 182 258 291 258 L398 258 L398 169 C398 91 321 35 225 35 L225 35 Z M266 616 C333 616 387 666 391 737 L349 737 C342 690 313 660 266 660 C220 660 193 690 188 737 L144 737 C148 666 198 616 266 616 L266 616 Z " />
<glyph glyph-name="Aogonek" unicode="&#x104;" horiz-adv-x="654" d="M581 -182 C605 -182 623 -177 639 -171 L639 -132 C623 -139 605 -142 588 -142 C555 -142 539 -125 539 -98 C539 -62 565 -32 620 2 L364 715 L290 715 L33 0 L86 0 L164 219 L486 219 L565 0 C523 -25 488 -63 488 -107 C488 -152 523 -182 581 -182 L581 -182 Z M325 669 L470 264 L180 264 L325 669 Z " />
<glyph glyph-name="aogonek" unicode="&#x105;" horiz-adv-x="529" d="M413 -182 C436 -182 455 -177 470 -171 L470 -132 C455 -139 437 -142 420 -142 C387 -142 371 -125 371 -98 C371 -62 398 -30 451 2 L451 346 C451 479 377 531 268 531 C169 531 79 485 67 375 L119 375 C131 452 187 486 266 486 C358 486 398 444 398 346 L398 299 L289 299 C160 299 44 262 44 141 C44 42 118 -8 221 -8 C309 -8 365 29 398 80 L398 1 C357 -22 320 -61 320 -107 C320 -152 355 -182 413 -182 L413 -182 Z M225 35 C139 35 97 74 97 141 C97 235 182 258 291 258 L398 258 L398 169 C398 91 321 35 225 35 L225 35 Z " />
<glyph glyph-name="Cacute" unicode="&#x106;" horiz-adv-x="725" d="M385 -8 C539 -8 656 76 682 230 L630 230 C607 107 515 39 386 39 C216 39 110 161 110 354 L110 362 C110 551 226 679 386 679 C518 679 596 615 618 500 L674 500 C652 647 533 724 385 724 C198 724 53 572 53 361 L53 353 C53 137 181 -8 385 -8 L385 -8 Z M359 771 L401 771 L489 893 L423 893 L359 771 Z " />
<glyph glyph-name="cacute" unicode="&#x107;" horiz-adv-x="556" d="M261 605 L302 605 L394 752 L329 752 L261 605 Z M293 -8 C412 -8 502 69 516 181 L467 181 C454 87 380 37 293 37 C183 37 98 118 98 256 L98 264 C98 402 184 486 293 486 C375 486 446 445 459 357 L511 357 C497 475 399 531 293 531 C155 531 43 424 43 264 L43 256 C43 97 152 -8 293 -8 L293 -8 Z " />
<glyph glyph-name="Ccircumflex" unicode="&#x108;" horiz-adv-x="725" d="M253 771 L294 771 L387 849 L479 771 L521 771 L413 893 L363 893 L253 771 Z M385 -8 C539 -8 656 76 682 230 L630 230 C607 107 515 39 386 39 C216 39 110 161 110 354 L110 362 C110 551 226 679 386 679 C518 679 596 615 618 500 L674 500 C652 647 533 724 385 724 C198 724 53 572 53 361 L53 353 C53 137 181 -8 385 -8 L385 -8 Z " />
<glyph glyph-name="ccircumflex" unicode="&#x109;" horiz-adv-x="556" d="M155 605 L196 605 L289 695 L381 605 L423 605 L315 740 L265 740 L155 605 Z M293 -8 C412 -8 502 69 516 181 L467 181 C454 87 380 37 293 37 C183 37 98 118 98 256 L98 264 C98 402 184 486 293 486 C375 486 446 445 459 357 L511 357 C497 475 399 531 293 531 C155 531 43 424 43 264 L43 256 C43 97 152 -8 293 -8 L293 -8 Z " />
<glyph glyph-name="Cdotaccent" unicode="&#x10a;" horiz-adv-x="725" d="M385 -8 C539 -8 656 76 682 230 L630 230 C607 107 515 39 386 39 C216 39 110 161 110 354 L110 362 C110 551 226 679 386 679 C518 679 596 615 618 500 L674 500 C652 647 533 724 385 724 C198 724 53 572 53 361 L53 353 C53 137 181 -8 385 -8 L385 -8 Z M384 787 C405 787 422 804 422 825 C422 845 405 862 384 862 C363 862 346 845 346 825 C346 804 363 787 384 787 L384 787 Z " />
<glyph glyph-name="cdotaccent" unicode="&#x10b;" horiz-adv-x="556" d="M293 -8 C412 -8 502 69 516 181 L467 181 C454 87 380 37 293 37 C183 37 98 118 98 256 L98 264 C98 402 184 486 293 486 C375 486 446 445 459 357 L511 357 C497 475 399 531 293 531 C155 531 43 424 43 264 L43 256 C43 97 152 -8 293 -8 L293 -8 Z M289 635 C310 635 327 652 327 673 C327 693 310 710 289 710 C268 710 251 693 251 673 C251 652 268 635 289 635 L289 635 Z " />
<glyph glyph-name="Ccaron" unicode="&#x10c;" horiz-adv-x="725" d="M361 771 L411 771 L522 893 L481 893 L387 816 L294 893 L252 893 L361 771 Z M385 -8 C539 -8 656 76 682 230 L630 230 C607 107 515 39 386 39 C216 39 110 161 110 354 L110 362 C110 551 226 679 386 679 C518 679 596 615 618 500 L674 500 C652 647 533 724 385 724 C198 724 53 572 53 361 L53 353 C53 137 181 -8 385 -8 L385 -8 Z " />
<glyph glyph-name="ccaron" unicode="&#x10d;" horiz-adv-x="556" d="M263 613 L313 613 L423 748 L382 748 L289 658 L197 748 L155 748 L263 613 Z M293 -8 C412 -8 502 69 516 181 L467 181 C454 87 380 37 293 37 C183 37 98 118 98 256 L98 264 C98 402 184 486 293 486 C375 486 446 445 459 357 L511 357 C497 475 399 531 293 531 C155 531 43 424 43 264 L43 256 C43 97 152 -8 293 -8 L293 -8 Z " />
<glyph glyph-name="Dcaron" unicode="&#x10e;" horiz-adv-x="686" d="M288 771 L338 771 L449 893 L408 893 L314 816 L221 893 L179 893 L288 771 Z M148 46 L148 669 L273 669 C483 669 576 540 576 364 L576 356 C576 174 477 46 274 46 L148 46 Z M92 0 L276 0 C520 0 634 157 634 355 L634 364 C634 563 514 715 278 715 L92 715 L92 0 Z " />
<glyph glyph-name="dcaron" unicode="&#x10f;" horiz-adv-x="612" d="M585 611 L624 611 L657 773 L597 773 L585 611 Z M278 -8 C376 -8 449 58 477 121 L477 0 L530 0 L530 773 L477 773 L477 407 C447 472 389 531 286 531 C148 531 43 423 43 262 L43 254 C43 88 145 -8 278 -8 L278 -8 Z M283 37 C179 37 98 113 98 256 L98 264 C98 405 179 486 291 486 C400 486 478 410 478 266 L478 258 C478 114 389 37 283 37 L283 37 Z " />
<glyph glyph-name="Dcroat" unicode="&#x110;" horiz-adv-x="697" d="M28 337 L103 337 L103 0 L286 0 C531 0 644 157 644 355 L644 364 C644 563 525 715 288 715 L103 715 L103 381 L28 381 L28 337 Z M159 46 L159 337 L367 337 L367 381 L159 381 L159 669 L283 669 C494 669 587 540 587 364 L587 356 C587 174 488 46 284 46 L159 46 Z " />
<glyph glyph-name="dcroat" unicode="&#x111;" horiz-adv-x="612" d="M288 623 L477 623 L477 407 C447 472 389 531 286 531 C148 531 43 423 43 262 L43 254 C43 88 145 -8 278 -8 C376 -8 449 58 477 121 L477 0 L530 0 L530 623 L607 623 L607 664 L530 664 L530 773 L477 773 L477 664 L288 664 L288 623 Z M283 37 C179 37 98 113 98 256 L98 264 C98 405 179 486 291 486 C400 486 478 410 478 266 L478 258 C478 114 389 37 283 37 L283 37 Z " />
<glyph glyph-name="Emacron" unicode="&#x112;" horiz-adv-x="566" d="M92 0 L521 0 L521 46 L148 46 L148 344 L436 344 L436 390 L148 390 L148 669 L503 669 L503 715 L92 715 L92 0 Z M175 791 L423 791 L423 833 L175 833 L175 791 Z " />
<glyph glyph-name="emacron" unicode="&#x113;" horiz-adv-x="554" d="M291 -8 C403 -8 486 46 508 146 L455 146 C437 73 378 37 291 37 C167 37 100 117 98 257 L512 257 L512 276 C512 449 409 531 283 531 C143 531 43 422 43 264 L43 256 C43 99 140 -8 291 -8 L291 -8 Z M100 300 C110 414 182 486 283 486 C385 486 452 427 457 300 L100 300 Z M161 647 L403 647 L403 689 L161 689 L161 647 Z " />
<glyph glyph-name="Ebreve" unicode="&#x114;" horiz-adv-x="566" d="M92 0 L521 0 L521 46 L148 46 L148 344 L436 344 L436 390 L148 390 L148 669 L503 669 L503 715 L92 715 L92 0 Z M301 771 C368 771 426 823 430 893 L387 893 C381 847 348 815 301 815 C255 815 224 847 219 893 L175 893 C179 823 233 771 301 771 L301 771 Z " />
<glyph glyph-name="ebreve" unicode="&#x115;" horiz-adv-x="554" d="M291 -8 C403 -8 486 46 508 146 L455 146 C437 73 378 37 291 37 C167 37 100 117 98 257 L512 257 L512 276 C512 449 409 531 283 531 C143 531 43 422 43 264 L43 256 C43 99 140 -8 291 -8 L291 -8 Z M100 300 C110 414 182 486 283 486 C385 486 452 427 457 300 L100 300 Z M276 616 C343 616 397 666 401 737 L359 737 C352 690 323 660 276 660 C230 660 203 690 198 737 L154 737 C158 666 208 616 276 616 L276 616 Z " />
<glyph glyph-name="Edotaccent" unicode="&#x116;" horiz-adv-x="566" d="M299 787 C320 787 337 804 337 825 C337 845 320 862 299 862 C278 862 261 845 261 825 C261 804 278 787 299 787 L299 787 Z M92 0 L521 0 L521 46 L148 46 L148 344 L436 344 L436 390 L148 390 L148 669 L503 669 L503 715 L92 715 L92 0 Z " />
<glyph glyph-name="edotaccent" unicode="&#x117;" horiz-adv-x="554" d="M291 -8 C403 -8 486 46 508 146 L455 146 C437 73 378 37 291 37 C167 37 100 117 98 257 L512 257 L512 276 C512 449 409 531 283 531 C143 531 43 422 43 264 L43 256 C43 99 140 -8 291 -8 L291 -8 Z M100 300 C110 414 182 486 283 486 C385 486 452 427 457 300 L100 300 Z M282 635 C303 635 320 652 320 673 C320 693 303 710 282 710 C261 710 244 693 244 673 C244 652 261 635 282 635 L282 635 Z " />
<glyph glyph-name="Eogonek" unicode="&#x118;" horiz-adv-x="566" d="M437 -182 C460 -182 479 -177 494 -171 L494 -132 C478 -139 461 -142 444 -142 C410 -142 395 -125 395 -98 C395 -62 421 -32 470 0 L521 0 L521 46 L148 46 L148 344 L436 344 L436 390 L148 390 L148 669 L503 669 L503 715 L92 715 L92 0 L421 0 C378 -24 343 -63 343 -107 C343 -152 379 -182 437 -182 L437 -182 Z " />
<glyph glyph-name="eogonek" unicode="&#x119;" horiz-adv-x="554" d="M374 -182 C398 -182 416 -177 431 -171 L431 -132 C416 -139 398 -142 381 -142 C348 -142 332 -125 332 -98 C332 -50 384 -14 428 23 C456 46 494 81 508 146 L455 146 C437 73 378 37 291 37 C167 37 100 117 98 257 L512 257 L512 276 C512 449 409 531 283 531 C143 531 43 422 43 264 L43 256 C43 99 140 -8 291 -8 C314 -8 336 -5 358 1 C315 -25 281 -64 281 -107 C281 -152 316 -182 374 -182 L374 -182 Z M100 300 C110 414 182 486 283 486 C385 486 452 427 457 300 L100 300 Z " />
<glyph glyph-name="Ecaron" unicode="&#x11a;" horiz-adv-x="566" d="M275 771 L325 771 L436 893 L395 893 L301 816 L208 893 L166 893 L275 771 Z M92 0 L521 0 L521 46 L148 46 L148 344 L436 344 L436 390 L148 390 L148 669 L503 669 L503 715 L92 715 L92 0 Z " />
<glyph glyph-name="ecaron" unicode="&#x11b;" horiz-adv-x="554" d="M256 613 L306 613 L416 748 L375 748 L282 658 L190 748 L148 748 L256 613 Z M291 -8 C403 -8 486 46 508 146 L455 146 C437 73 378 37 291 37 C167 37 100 117 98 257 L512 257 L512 276 C512 449 409 531 283 531 C143 531 43 422 43 264 L43 256 C43 99 140 -8 291 -8 L291 -8 Z M100 300 C110 414 182 486 283 486 C385 486 452 427 457 300 L100 300 Z " />
<glyph glyph-name="Gcircumflex" unicode="&#x11c;" horiz-adv-x="756" d="M256 771 L297 771 L390 849 L482 771 L524 771 L416 893 L366 893 L256 771 Z M396 -8 C580 -8 703 102 703 308 L703 349 L429 349 L429 302 L649 302 L649 298 C647 141 563 38 396 38 C212 38 110 164 110 354 L110 362 C110 548 223 679 395 679 C509 679 599 629 625 511 L681 511 C654 660 531 724 394 724 C198 724 53 570 53 361 L53 353 C53 143 181 -8 396 -8 L396 -8 Z " />
<glyph glyph-name="gcircumflex" unicode="&#x11d;" horiz-adv-x="612" d="M155 605 L196 605 L289 695 L381 605 L423 605 L315 740 L265 740 L155 605 Z M288 -188 C428 -188 529 -119 530 35 L530 523 L477 523 L477 410 C447 474 389 531 286 531 C148 531 43 423 43 274 L43 267 C43 115 146 17 279 17 C376 17 449 81 477 144 L477 37 C477 -92 399 -143 287 -143 C178 -143 122 -97 108 -30 L54 -30 C67 -114 137 -188 288 -188 L288 -188 Z M284 62 C180 62 98 138 98 268 L98 276 C98 406 179 486 291 486 C400 486 478 410 478 278 L478 270 C478 139 390 62 284 62 L284 62 Z " />
<glyph glyph-name="Gbreve" unicode="&#x11e;" horiz-adv-x="756" d="M388 771 C455 771 513 823 517 893 L474 893 C468 847 435 815 388 815 C342 815 311 847 306 893 L262 893 C266 823 320 771 388 771 L388 771 Z M396 -8 C580 -8 703 102 703 308 L703 349 L429 349 L429 302 L649 302 L649 298 C647 141 563 38 396 38 C212 38 110 164 110 354 L110 362 C110 548 223 679 395 679 C509 679 599 629 625 511 L681 511 C654 660 531 724 394 724 C198 724 53 570 53 361 L53 353 C53 143 181 -8 396 -8 L396 -8 Z " />
<glyph glyph-name="gbreve" unicode="&#x11f;" horiz-adv-x="612" d="M288 -188 C428 -188 529 -119 530 35 L530 523 L477 523 L477 410 C447 474 389 531 286 531 C148 531 43 423 43 274 L43 267 C43 115 146 17 279 17 C376 17 449 81 477 144 L477 37 C477 -92 399 -143 287 -143 C178 -143 122 -97 108 -30 L54 -30 C67 -114 137 -188 288 -188 L288 -188 Z M284 62 C180 62 98 138 98 268 L98 276 C98 406 179 486 291 486 C400 486 478 410 478 278 L478 270 C478 139 390 62 284 62 L284 62 Z M288 616 C355 616 409 666 413 737 L371 737 C364 690 335 660 288 660 C242 660 215 690 210 737 L166 737 C170 666 220 616 288 616 L288 616 Z " />
<glyph glyph-name="Gdotaccent" unicode="&#x120;" horiz-adv-x="756" d="M390 787 C411 787 428 804 428 825 C428 845 411 862 390 862 C369 862 352 845 352 825 C352 804 369 787 390 787 L390 787 Z M396 -8 C580 -8 703 102 703 308 L703 349 L429 349 L429 302 L649 302 L649 298 C647 141 563 38 396 38 C212 38 110 164 110 354 L110 362 C110 548 223 679 395 679 C509 679 599 629 625 511 L681 511 C654 660 531 724 394 724 C198 724 53 570 53 361 L53 353 C53 143 181 -8 396 -8 L396 -8 Z " />
<glyph glyph-name="gdotaccent" unicode="&#x121;" horiz-adv-x="612" d="M288 -188 C428 -188 529 -119 530 35 L530 523 L477 523 L477 410 C447 474 389 531 286 531 C148 531 43 423 43 274 L43 267 C43 115 146 17 279 17 C376 17 449 81 477 144 L477 37 C477 -92 399 -143 287 -143 C178 -143 122 -97 108 -30 L54 -30 C67 -114 137 -188 288 -188 L288 -188 Z M284 62 C180 62 98 138 98 268 L98 276 C98 406 179 486 291 486 C400 486 478 410 478 278 L478 270 C478 139 390 62 284 62 L284 62 Z M289 635 C310 635 327 652 327 673 C327 693 310 710 289 710 C268 710 251 693 251 673 C251 652 268 635 289 635 L289 635 Z " />
<glyph glyph-name="Gcommaaccent" unicode="&#x122;" horiz-adv-x="756" d="M352 -204 L427 -56 L376 -41 L318 -188 L352 -204 Z M396 -8 C580 -8 703 102 703 308 L703 349 L429 349 L429 302 L649 302 L649 298 C647 141 563 38 396 38 C212 38 110 164 110 354 L110 362 C110 548 223 679 395 679 C509 679 599 629 625 511 L681 511 C654 660 531 724 394 724 C198 724 53 570 53 361 L53 353 C53 143 181 -8 396 -8 L396 -8 Z " />
<glyph glyph-name="gcommaaccent" unicode="&#x123;" horiz-adv-x="612" d="M312 607 L370 753 L335 770 L260 622 L312 607 Z M288 -188 C428 -188 529 -119 530 35 L530 523 L477 523 L477 410 C447 474 389 531 286 531 C148 531 43 423 43 274 L43 267 C43 115 146 17 279 17 C376 17 449 81 477 144 L477 37 C477 -92 399 -143 287 -143 C178 -143 122 -97 108 -30 L54 -30 C67 -114 137 -188 288 -188 L288 -188 Z M284 62 C180 62 98 138 98 268 L98 276 C98 406 179 486 291 486 C400 486 478 410 478 278 L478 270 C478 139 390 62 284 62 L284 62 Z " />
<glyph glyph-name="Hcircumflex" unicode="&#x124;" horiz-adv-x="717" d="M92 0 L148 0 L148 335 L569 335 L569 0 L625 0 L625 715 L569 715 L569 382 L148 382 L148 715 L92 715 L92 0 Z M224 771 L265 771 L358 849 L450 771 L492 771 L384 893 L334 893 L224 771 Z " />
<glyph glyph-name="hcircumflex" unicode="&#x125;" horiz-adv-x="583" d="M82 0 L135 0 L135 317 C135 427 221 485 308 485 C401 485 453 436 453 325 L453 0 L506 0 L506 322 C506 471 431 531 320 531 C227 531 159 478 135 421 L135 773 L82 773 L82 0 Z " />
<glyph glyph-name="Hbar" unicode="&#x126;" horiz-adv-x="717" d="M13 510 L92 510 L92 0 L148 0 L148 335 L569 335 L569 0 L625 0 L625 510 L704 510 L704 554 L625 554 L625 715 L569 715 L569 554 L148 554 L148 715 L92 715 L92 554 L13 554 L13 510 Z M148 382 L148 510 L569 510 L569 382 L148 382 Z " />
<glyph glyph-name="hbar" unicode="&#x127;" horiz-adv-x="583" d="M4 623 L82 623 L82 0 L135 0 L135 317 C135 427 221 485 308 485 C401 485 453 436 453 325 L453 0 L506 0 L506 322 C506 471 431 531 320 531 C227 531 159 478 135 421 L135 623 L324 623 L324 664 L135 664 L135 773 L82 773 L82 664 L4 664 L4 623 Z " />
<glyph glyph-name="Itilde" unicode="&#x128;" horiz-adv-x="250" d="M97 0 L153 0 L153 715 L97 715 L97 0 Z M188 774 C231 774 266 809 274 873 L234 873 C229 839 210 819 188 819 C152 819 112 872 65 872 C21 872 -14 837 -22 773 L19 773 C24 807 42 827 65 827 C100 827 140 774 188 774 L188 774 Z " />
<glyph glyph-name="itilde" unicode="&#x129;" horiz-adv-x="221" d="M84 0 L137 0 L137 523 L84 523 L84 0 Z M174 616 C217 616 252 652 260 715 L220 715 C215 681 195 662 174 662 C139 662 98 715 51 715 C7 715 -28 679 -36 616 L5 616 C10 649 29 669 50 669 C85 669 126 616 174 616 L174 616 Z " />
<glyph glyph-name="Imacron" unicode="&#x12a;" horiz-adv-x="250" d="M97 0 L153 0 L153 715 L97 715 L97 0 Z M1 791 L249 791 L249 833 L1 833 L1 791 Z " />
<glyph glyph-name="imacron" unicode="&#x12b;" horiz-adv-x="221" d="M24 647 L197 647 L197 689 L24 689 L24 647 Z M84 0 L137 0 L137 523 L84 523 L84 0 Z " />
<glyph glyph-name="Ibreve" unicode="&#x12c;" horiz-adv-x="250" d="M97 0 L153 0 L153 715 L97 715 L97 0 Z M125 771 C192 771 250 823 254 893 L211 893 C205 847 172 815 125 815 C79 815 48 847 43 893 L-1 893 C3 823 57 771 125 771 L125 771 Z " />
<glyph glyph-name="ibreve" unicode="&#x12d;" horiz-adv-x="221" d="M84 0 L137 0 L137 523 L84 523 L84 0 Z M110 616 C177 616 231 666 235 737 L193 737 C186 690 157 660 110 660 C64 660 37 690 32 737 L-12 737 C-8 666 42 616 110 616 L110 616 Z " />
<glyph glyph-name="Iogonek" unicode="&#x12e;" horiz-adv-x="250" d="M124 -182 C147 -182 166 -177 181 -171 L181 -132 C165 -139 148 -142 131 -142 C97 -142 82 -125 82 -98 C82 -60 110 -27 153 2 L153 715 L97 715 L97 -1 C61 -27 30 -63 30 -107 C30 -152 66 -182 124 -182 L124 -182 Z " />
<glyph glyph-name="iogonek" unicode="&#x12f;" horiz-adv-x="221" d="M113 -182 C137 -182 155 -177 170 -171 L170 -132 C155 -139 137 -142 120 -142 C87 -142 71 -125 71 -98 C71 -60 97 -29 137 2 L137 523 L84 523 L84 -2 C49 -28 20 -62 20 -107 C20 -152 55 -182 113 -182 L113 -182 Z M110 635 C131 635 147 652 147 673 C147 693 131 710 110 710 C89 710 72 693 72 673 C72 652 89 635 110 635 L110 635 Z " />
<glyph glyph-name="Idotaccent" unicode="&#x130;" horiz-adv-x="250" d="M97 0 L153 0 L153 715 L97 715 L97 0 Z M125 787 C146 787 163 804 163 825 C163 845 146 862 125 862 C104 862 87 845 87 825 C87 804 104 787 125 787 L125 787 Z " />
<glyph glyph-name="dotlessi" unicode="&#x131;" horiz-adv-x="221" d="M84 0 L137 0 L137 523 L84 523 L84 0 Z " />
<glyph glyph-name="IJ" unicode="&#x132;" horiz-adv-x="616" d="M97 0 L153 0 L153 715 L97 715 L97 0 Z M351 -7 C455 -7 533 49 533 181 L533 715 L477 715 L477 183 C477 80 428 39 348 39 C305 39 276 49 251 60 L251 13 C270 4 301 -7 351 -7 L351 -7 Z " />
<glyph glyph-name="ij" unicode="&#x133;" horiz-adv-x="443" d="M84 0 L137 0 L137 523 L84 523 L84 0 Z M110 635 C131 635 147 652 147 673 C147 693 131 710 110 710 C89 710 72 693 72 673 C72 652 89 635 110 635 L110 635 Z M228 -188 C323 -184 358 -139 358 -48 L358 523 L305 523 L305 -52 C305 -108 287 -138 228 -143 L228 -188 Z M331 635 C352 635 368 652 368 673 C368 693 352 710 331 710 C310 710 293 693 293 673 C293 652 310 635 331 635 L331 635 Z " />
<glyph glyph-name="Jcircumflex" unicode="&#x134;" horiz-adv-x="401" d="M156 771 L197 771 L290 849 L382 771 L424 771 L316 893 L266 893 L156 771 Z M137 -7 C241 -7 319 49 319 181 L319 715 L263 715 L263 183 C263 80 214 39 134 39 C91 39 62 49 37 60 L37 13 C56 4 87 -7 137 -7 L137 -7 Z " />
<glyph glyph-name="jcircumflex" unicode="&#x135;" horiz-adv-x="221" d="M7 -188 C102 -184 137 -139 137 -48 L137 523 L84 523 L84 -52 C84 -108 66 -138 7 -143 L7 -188 Z M-23 605 L18 605 L111 695 L203 605 L245 605 L137 740 L87 740 L-23 605 Z " />
<glyph glyph-name="Kcommaaccent" unicode="&#x136;" horiz-adv-x="599" d="M92 0 L148 0 L148 361 L508 0 L576 0 L213 367 L559 716 L495 716 L148 363 L148 715 L92 715 L92 0 Z M274 -204 L349 -56 L298 -41 L240 -188 L274 -204 Z " />
<glyph glyph-name="kcommaaccent" unicode="&#x137;" horiz-adv-x="487" d="M82 0 L135 0 L135 277 L404 0 L470 0 L198 279 L453 523 L390 523 L135 277 L135 773 L82 773 L82 0 Z M217 -204 L292 -56 L241 -41 L183 -188 L217 -204 Z " />
<glyph glyph-name="Lacute" unicode="&#x139;" horiz-adv-x="530" d="M95 771 L137 771 L225 893 L159 893 L95 771 Z M92 0 L495 0 L495 46 L148 46 L148 715 L92 715 L92 0 Z " />
<glyph glyph-name="lacute" unicode="&#x13a;" horiz-adv-x="222" d="M84 0 L138 0 L138 773 L84 773 L84 0 Z " />
<glyph glyph-name="Lcommaaccent" unicode="&#x13b;" horiz-adv-x="530" d="M251 -204 L326 -56 L275 -41 L217 -188 L251 -204 Z M92 0 L495 0 L495 46 L148 46 L148 715 L92 715 L92 0 Z " />
<glyph glyph-name="lcommaaccent" unicode="&#x13c;" horiz-adv-x="222" d="M72 -204 L147 -56 L96 -41 L38 -188 L72 -204 Z M84 0 L138 0 L138 773 L84 773 L84 0 Z " />
<glyph glyph-name="Lcaron" unicode="&#x13d;" horiz-adv-x="530" d="M304 558 L343 558 L387 715 L328 715 L304 558 Z M92 0 L495 0 L495 46 L148 46 L148 715 L92 715 L92 0 Z " />
<glyph glyph-name="lcaron" unicode="&#x13e;" horiz-adv-x="222" d="M193 611 L232 611 L265 773 L205 773 L193 611 Z M84 0 L138 0 L138 773 L84 773 L84 0 Z " />
<glyph glyph-name="Ldot" unicode="&#x13f;" horiz-adv-x="530" d="M92 0 L495 0 L495 46 L148 46 L148 715 L92 715 L92 0 Z M419 333 C443 333 462 352 462 376 C462 399 443 418 419 418 C396 418 377 399 377 376 C377 352 396 333 419 333 L419 333 Z " />
<glyph glyph-name="ldot" unicode="&#x140;" horiz-adv-x="279" d="M84 0 L138 0 L138 773 L84 773 L84 0 Z M249 330 C273 330 292 349 292 373 C292 396 273 415 249 415 C226 415 207 396 207 373 C207 349 226 330 249 330 L249 330 Z " />
<glyph glyph-name="Lslash" unicode="&#x141;" horiz-adv-x="545" d="M34 259 L107 286 L107 0 L510 0 L510 46 L163 46 L163 306 L385 389 L385 434 L163 351 L163 715 L107 715 L107 331 L34 304 L34 259 Z " />
<glyph glyph-name="lslash" unicode="&#x142;" horiz-adv-x="239" d="M16 332 L93 380 L93 0 L146 0 L146 414 L227 465 L227 511 L146 460 L146 773 L93 773 L93 426 L16 378 L16 332 Z " />
<glyph glyph-name="Nacute" unicode="&#x143;" horiz-adv-x="713" d="M339 771 L381 771 L469 893 L403 893 L339 771 Z M92 0 L146 0 L146 653 L555 0 L621 0 L621 715 L568 715 L568 77 L168 715 L92 715 L92 0 Z " />
<glyph glyph-name="nacute" unicode="&#x144;" horiz-adv-x="583" d="M262 605 L303 605 L395 752 L330 752 L262 605 Z M82 0 L135 0 L135 317 C135 427 221 485 308 485 C401 485 453 436 453 325 L453 0 L506 0 L506 322 C506 471 431 531 320 531 C227 531 159 478 135 421 L135 523 L82 523 L82 0 Z " />
<glyph glyph-name="Ncommaaccent" unicode="&#x145;" horiz-adv-x="713" d="M308 -204 L383 -56 L332 -41 L274 -188 L308 -204 Z M92 0 L146 0 L146 653 L555 0 L621 0 L621 715 L568 715 L568 77 L168 715 L92 715 L92 0 Z " />
<glyph glyph-name="ncommaaccent" unicode="&#x146;" horiz-adv-x="583" d="M252 -204 L327 -56 L276 -41 L218 -188 L252 -204 Z M82 0 L135 0 L135 317 C135 427 221 485 308 485 C401 485 453 436 453 325 L453 0 L506 0 L506 322 C506 471 431 531 320 531 C227 531 159 478 135 421 L135 523 L82 523 L82 0 Z " />
<glyph glyph-name="Ncaron" unicode="&#x147;" horiz-adv-x="713" d="M341 771 L391 771 L502 893 L461 893 L367 816 L274 893 L232 893 L341 771 Z M92 0 L146 0 L146 653 L555 0 L621 0 L621 715 L568 715 L568 77 L168 715 L92 715 L92 0 Z " />
<glyph glyph-name="ncaron" unicode="&#x148;" horiz-adv-x="583" d="M264 613 L314 613 L424 748 L383 748 L290 658 L198 748 L156 748 L264 613 Z M82 0 L135 0 L135 317 C135 427 221 485 308 485 C401 485 453 436 453 325 L453 0 L506 0 L506 322 C506 471 431 531 320 531 C227 531 159 478 135 421 L135 523 L82 523 L82 0 Z " />
<glyph glyph-name="napostrophe" unicode="&#x149;" horiz-adv-x="590" d="M-1 528 L91 700 L40 722 L-35 545 L-1 528 Z M88 0 L141 0 L141 317 C141 427 227 485 314 485 C407 485 459 436 459 325 L459 0 L512 0 L512 322 C512 471 437 531 326 531 C233 531 165 478 141 421 L141 523 L88 523 L88 0 Z " />
<glyph glyph-name="Eng" unicode="&#x14a;" horiz-adv-x="713" d="M439 -190 C544 -190 621 -135 621 2 L621 715 L568 715 L568 90 L168 715 L92 715 L92 0 L146 0 L146 653 L566 -5 C565 -104 515 -144 437 -144 C394 -144 364 -134 339 -123 L339 -170 C358 -180 389 -190 439 -190 L439 -190 Z " />
<glyph glyph-name="eng" unicode="&#x14b;" horiz-adv-x="583" d="M366 -188 C466 -183 506 -138 506 -37 L506 322 C506 471 431 531 320 531 C227 531 159 478 135 421 L135 523 L82 523 L82 0 L135 0 L135 317 C135 427 221 485 308 485 C401 485 453 436 453 325 L453 -41 C453 -107 430 -137 366 -143 L366 -188 Z " />
<glyph glyph-name="Omacron" unicode="&#x14c;" horiz-adv-x="801" d="M276 791 L524 791 L524 833 L276 833 L276 791 Z M403 39 C237 39 110 172 110 354 L110 362 C110 542 226 677 401 677 C576 677 691 538 691 364 L691 356 C691 173 574 39 403 39 L403 39 Z M403 -8 C603 -8 749 153 749 355 L749 363 C749 564 603 723 401 723 C200 723 53 564 53 361 L53 353 C53 153 199 -8 403 -8 L403 -8 Z " />
<glyph glyph-name="omacron" unicode="&#x14d;" horiz-adv-x="591" d="M174 647 L416 647 L416 689 L174 689 L174 647 Z M296 37 C182 37 98 123 98 257 L98 265 C98 401 184 486 296 486 C407 486 493 403 493 265 L493 257 C493 122 408 37 296 37 L296 37 Z M295 -8 C436 -8 548 100 548 258 L548 266 C548 425 437 531 296 531 C156 531 43 422 43 265 L43 257 C43 103 153 -8 295 -8 L295 -8 Z " />
<glyph glyph-name="Obreve" unicode="&#x14e;" horiz-adv-x="801" d="M398 771 C465 771 523 823 527 893 L484 893 C478 847 445 815 398 815 C352 815 321 847 316 893 L272 893 C276 823 330 771 398 771 L398 771 Z M403 39 C237 39 110 172 110 354 L110 362 C110 542 226 677 401 677 C576 677 691 538 691 364 L691 356 C691 173 574 39 403 39 L403 39 Z M403 -8 C603 -8 749 153 749 355 L749 363 C749 564 603 723 401 723 C200 723 53 564 53 361 L53 353 C53 153 199 -8 403 -8 L403 -8 Z " />
<glyph glyph-name="obreve" unicode="&#x14f;" horiz-adv-x="591" d="M296 37 C182 37 98 123 98 257 L98 265 C98 401 184 486 296 486 C407 486 493 403 493 265 L493 257 C493 122 408 37 296 37 L296 37 Z M295 -8 C436 -8 548 100 548 258 L548 266 C548 425 437 531 296 531 C156 531 43 422 43 265 L43 257 C43 103 153 -8 295 -8 L295 -8 Z M294 616 C361 616 415 666 419 737 L377 737 C370 690 341 660 294 660 C248 660 221 690 216 737 L172 737 C176 666 226 616 294 616 L294 616 Z " />
<glyph glyph-name="Ohungarumlaut" unicode="&#x150;" horiz-adv-x="801" d="M310 771 L350 771 L415 893 L355 893 L310 771 Z M442 771 L482 771 L547 893 L487 893 L442 771 Z M403 39 C237 39 110 172 110 354 L110 362 C110 542 226 677 401 677 C576 677 691 538 691 364 L691 356 C691 173 574 39 403 39 L403 39 Z M403 -8 C603 -8 749 153 749 355 L749 363 C749 564 603 723 401 723 C200 723 53 564 53 361 L53 353 C53 153 199 -8 403 -8 L403 -8 Z " />
<glyph glyph-name="ohungarumlaut" unicode="&#x151;" horiz-adv-x="591" d="M209 605 L249 605 L318 752 L258 752 L209 605 Z M341 605 L381 605 L450 752 L390 752 L341 605 Z M296 37 C182 37 98 123 98 257 L98 265 C98 401 184 486 296 486 C407 486 493 403 493 265 L493 257 C493 122 408 37 296 37 L296 37 Z M295 -8 C436 -8 548 100 548 258 L548 266 C548 425 437 531 296 531 C156 531 43 422 43 265 L43 257 C43 103 153 -8 295 -8 L295 -8 Z " />
<glyph glyph-name="OE" unicode="&#x152;" horiz-adv-x="956" d="M53 359 L53 351 C53 152 172 0 409 0 L911 0 L911 46 L553 46 L553 344 L826 344 L826 390 L553 390 L553 669 L893 669 L893 715 L411 715 C166 715 53 557 53 359 L53 359 Z M498 669 L498 46 L414 46 C203 46 110 175 110 351 L110 359 C110 541 209 669 413 669 L498 669 Z " />
<glyph glyph-name="oe" unicode="&#x153;" horiz-adv-x="1003" d="M295 -8 C398 -8 482 50 519 143 C552 50 629 -8 740 -8 C852 -8 936 46 957 146 L904 146 C887 73 827 37 741 37 C617 37 550 117 547 257 L961 257 L961 276 C961 449 859 531 733 531 C631 531 554 473 520 380 C483 474 399 531 296 531 C156 531 43 422 43 265 L43 257 C43 103 153 -8 295 -8 L295 -8 Z M296 37 C182 37 98 123 98 257 L98 265 C98 401 184 486 296 486 C407 486 493 403 493 265 L493 257 C493 122 408 37 296 37 L296 37 Z M549 300 C559 414 632 486 733 486 C834 486 902 427 907 300 L549 300 Z " />
<glyph glyph-name="Racute" unicode="&#x154;" horiz-adv-x="606" d="M266 771 L308 771 L396 893 L330 893 L266 771 Z M92 0 L148 0 L148 326 L287 326 L511 0 L573 0 L346 330 C453 345 531 400 531 519 L531 523 C531 661 427 715 288 715 L92 715 L92 0 Z M148 371 L148 669 L291 669 C402 669 475 633 475 523 L475 519 C475 415 406 371 291 371 L148 371 Z " />
<glyph glyph-name="racute" unicode="&#x155;" horiz-adv-x="348" d="M165 605 L206 605 L298 752 L233 752 L165 605 Z M82 0 L135 0 L135 290 C135 429 211 476 312 480 L312 530 C216 527 164 477 135 413 L135 523 L82 523 L82 0 Z " />
<glyph glyph-name="Rcommaaccent" unicode="&#x156;" horiz-adv-x="606" d="M266 -204 L341 -56 L290 -41 L232 -188 L266 -204 Z M92 0 L148 0 L148 326 L287 326 L511 0 L573 0 L346 330 C453 345 531 400 531 519 L531 523 C531 661 427 715 288 715 L92 715 L92 0 Z M148 371 L148 669 L291 669 C402 669 475 633 475 523 L475 519 C475 415 406 371 291 371 L148 371 Z " />
<glyph glyph-name="rcommaaccent" unicode="&#x157;" horiz-adv-x="348" d="M69 -204 L144 -56 L93 -41 L35 -188 L69 -204 Z M82 0 L135 0 L135 290 C135 429 211 476 312 480 L312 530 C216 527 164 477 135 413 L135 523 L82 523 L82 0 Z " />
<glyph glyph-name="Rcaron" unicode="&#x158;" horiz-adv-x="606" d="M268 771 L318 771 L429 893 L388 893 L294 816 L201 893 L159 893 L268 771 Z M92 0 L148 0 L148 326 L287 326 L511 0 L573 0 L346 330 C453 345 531 400 531 519 L531 523 C531 661 427 715 288 715 L92 715 L92 0 Z M148 371 L148 669 L291 669 C402 669 475 633 475 523 L475 519 C475 415 406 371 291 371 L148 371 Z " />
<glyph glyph-name="rcaron" unicode="&#x159;" horiz-adv-x="348" d="M167 613 L217 613 L327 748 L286 748 L193 658 L101 748 L59 748 L167 613 Z M82 0 L135 0 L135 290 C135 429 211 476 312 480 L312 530 C216 527 164 477 135 413 L135 523 L82 523 L82 0 Z " />
<glyph glyph-name="Sacute" unicode="&#x15a;" horiz-adv-x="602" d="M308 -8 C452 -8 547 82 547 195 C547 329 470 374 310 398 C161 420 122 462 122 540 C122 626 185 677 295 677 C401 677 457 632 474 543 L525 543 C509 657 428 723 295 723 C161 723 70 647 70 536 C70 423 145 371 301 348 C445 326 493 291 493 191 C493 103 420 38 308 38 C159 38 109 115 97 205 L42 205 C57 88 131 -8 308 -8 L308 -8 Z M266 771 L308 771 L396 893 L330 893 L266 771 Z " />
<glyph glyph-name="sacute" unicode="&#x15b;" horiz-adv-x="465" d="M204 605 L245 605 L337 752 L272 752 L204 605 Z M239 -9 C358 -9 423 55 423 143 C423 245 359 272 247 292 C140 311 104 333 104 393 C104 449 153 486 226 486 C302 486 345 456 358 389 L409 389 C395 492 321 531 227 531 C139 531 55 480 55 391 C55 301 107 268 235 245 C333 227 372 206 372 139 C372 76 327 36 239 36 C142 36 98 85 89 156 L38 156 C45 56 116 -9 239 -9 L239 -9 Z " />
<glyph glyph-name="Scircumflex" unicode="&#x15c;" horiz-adv-x="602" d="M160 771 L201 771 L294 849 L386 771 L428 771 L320 893 L270 893 L160 771 Z M308 -8 C452 -8 547 82 547 195 C547 329 470 374 310 398 C161 420 122 462 122 540 C122 626 185 677 295 677 C401 677 457 632 474 543 L525 543 C509 657 428 723 295 723 C161 723 70 647 70 536 C70 423 145 371 301 348 C445 326 493 291 493 191 C493 103 420 38 308 38 C159 38 109 115 97 205 L42 205 C57 88 131 -8 308 -8 L308 -8 Z " />
<glyph glyph-name="scircumflex" unicode="&#x15d;" horiz-adv-x="465" d="M98 605 L139 605 L232 695 L324 605 L366 605 L258 740 L208 740 L98 605 Z M239 -9 C358 -9 423 55 423 143 C423 245 359 272 247 292 C140 311 104 333 104 393 C104 449 153 486 226 486 C302 486 345 456 358 389 L409 389 C395 492 321 531 227 531 C139 531 55 480 55 391 C55 301 107 268 235 245 C333 227 372 206 372 139 C372 76 327 36 239 36 C142 36 98 85 89 156 L38 156 C45 56 116 -9 239 -9 L239 -9 Z " />
<glyph glyph-name="Scedilla" unicode="&#x15e;" horiz-adv-x="602" d="M277 -212 C329 -212 372 -185 372 -134 C372 -73 320 -50 271 -61 L301 -8 L308 -8 C452 -8 547 82 547 195 C547 329 470 374 310 398 C161 420 122 462 122 540 C122 626 185 677 295 677 C401 677 457 632 474 543 L525 543 C509 657 428 723 295 723 C161 723 70 647 70 536 C70 423 145 371 301 348 C445 326 493 291 493 191 C493 103 420 38 308 38 C159 38 109 115 97 205 L42 205 C55 99 117 10 260 -5 L218 -80 L244 -101 C250 -98 263 -93 280 -93 C302 -93 325 -103 325 -132 C325 -159 305 -176 275 -176 C246 -176 229 -157 225 -134 L181 -134 C186 -181 223 -212 277 -212 L277 -212 Z " />
<glyph glyph-name="scedilla" unicode="&#x15f;" horiz-adv-x="465" d="M218 -212 C270 -212 313 -185 313 -134 C313 -73 261 -50 212 -61 L242 -9 C359 -8 423 55 423 143 C423 245 359 272 247 292 C140 311 104 333 104 393 C104 449 153 486 226 486 C302 486 345 456 358 389 L409 389 C395 492 321 531 227 531 C139 531 55 480 55 391 C55 301 107 268 235 245 C333 227 372 206 372 139 C372 76 327 36 239 36 C142 36 98 85 89 156 L38 156 C44 67 101 6 200 -6 L159 -80 L185 -101 C191 -98 204 -93 221 -93 C243 -93 266 -103 266 -132 C266 -159 246 -176 216 -176 C187 -176 170 -157 166 -134 L122 -134 C127 -181 164 -212 218 -212 L218 -212 Z " />
<glyph glyph-name="Scaron" unicode="&#x160;" horiz-adv-x="602" d="M267 771 L317 771 L428 893 L387 893 L293 816 L200 893 L158 893 L267 771 Z M308 -8 C452 -8 547 82 547 195 C547 329 470 374 310 398 C161 420 122 462 122 540 C122 626 185 677 295 677 C401 677 457 632 474 543 L525 543 C509 657 428 723 295 723 C161 723 70 647 70 536 C70 423 145 371 301 348 C445 326 493 291 493 191 C493 103 420 38 308 38 C159 38 109 115 97 205 L42 205 C57 88 131 -8 308 -8 L308 -8 Z " />
<glyph glyph-name="scaron" unicode="&#x161;" horiz-adv-x="465" d="M206 613 L256 613 L366 748 L325 748 L232 658 L140 748 L98 748 L206 613 Z M239 -9 C358 -9 423 55 423 143 C423 245 359 272 247 292 C140 311 104 333 104 393 C104 449 153 486 226 486 C302 486 345 456 358 389 L409 389 C395 492 321 531 227 531 C139 531 55 480 55 391 C55 301 107 268 235 245 C333 227 372 206 372 139 C372 76 327 36 239 36 C142 36 98 85 89 156 L38 156 C45 56 116 -9 239 -9 L239 -9 Z " />
<glyph glyph-name="Tcommaaccent" unicode="&#x162;" horiz-adv-x="559" d="M241 -204 L316 -56 L265 -41 L207 -188 L241 -204 Z M252 0 L307 0 L307 669 L529 669 L529 715 L30 715 L30 669 L252 669 L252 0 Z " />
<glyph glyph-name="tcommaaccent" unicode="&#x163;" horiz-adv-x="338" d="M146 -204 L221 -56 L170 -41 L112 -188 L146 -204 Z M230 -7 C262 -7 282 -2 299 4 L299 49 C281 43 260 38 233 38 C185 38 155 67 155 130 L155 478 L292 478 L292 523 L155 523 L155 642 L102 642 L102 523 L25 523 L25 478 L102 478 L102 126 C102 42 147 -7 230 -7 L230 -7 Z " />
<glyph glyph-name="Tcaron" unicode="&#x164;" horiz-adv-x="559" d="M253 771 L303 771 L414 893 L373 893 L279 816 L186 893 L144 893 L253 771 Z M252 0 L307 0 L307 669 L529 669 L529 715 L30 715 L30 669 L252 669 L252 0 Z " />
<glyph glyph-name="tcaron" unicode="&#x165;" horiz-adv-x="338" d="M244 611 L283 611 L316 773 L256 773 L244 611 Z M230 -7 C262 -7 282 -2 299 4 L299 49 C281 43 260 38 233 38 C185 38 155 67 155 130 L155 478 L292 478 L292 523 L155 523 L155 642 L102 642 L102 523 L25 523 L25 478 L102 478 L102 126 C102 42 147 -7 230 -7 L230 -7 Z " />
<glyph glyph-name="Tbar" unicode="&#x166;" horiz-adv-x="559" d="M100 365 L252 365 L252 0 L307 0 L307 365 L460 365 L460 408 L307 408 L307 669 L529 669 L529 715 L30 715 L30 669 L252 669 L252 408 L100 408 L100 365 Z " />
<glyph glyph-name="tbar" unicode="&#x167;" horiz-adv-x="338" d="M25 302 L102 302 L102 126 C102 42 147 -7 230 -7 C262 -7 282 -2 299 4 L299 49 C281 43 260 38 233 38 C185 38 155 67 155 130 L155 302 L292 302 L292 341 L155 341 L155 478 L292 478 L292 523 L155 523 L155 642 L102 642 L102 523 L25 523 L25 478 L102 478 L102 341 L25 341 L25 302 Z " />
<glyph glyph-name="Utilde" unicode="&#x168;" horiz-adv-x="682" d="M338 -7 C516 -7 601 96 601 267 L601 715 L545 715 L545 275 C545 106 476 40 339 40 C206 40 137 109 137 262 L137 715 L82 715 L82 256 C82 85 177 -7 338 -7 L338 -7 Z M403 774 C446 774 481 809 489 873 L449 873 C444 839 425 819 403 819 C367 819 327 872 280 872 C236 872 201 837 193 773 L234 773 C239 807 257 827 280 827 C315 827 355 774 403 774 L403 774 Z " />
<glyph glyph-name="utilde" unicode="&#x169;" horiz-adv-x="579" d="M261 -8 C353 -8 420 43 444 100 L444 0 L497 0 L497 523 L444 523 L444 205 C444 95 358 38 273 38 C182 38 130 84 130 195 L130 523 L77 523 L77 192 C77 48 153 -8 261 -8 L261 -8 Z M351 616 C394 616 429 652 437 715 L397 715 C392 681 372 662 351 662 C316 662 275 715 228 715 C184 715 149 679 141 616 L182 616 C187 649 206 669 227 669 C262 669 303 616 351 616 L351 616 Z " />
<glyph glyph-name="Umacron" unicode="&#x16a;" horiz-adv-x="682" d="M338 -7 C516 -7 601 96 601 267 L601 715 L545 715 L545 275 C545 106 476 40 339 40 C206 40 137 109 137 262 L137 715 L82 715 L82 256 C82 85 177 -7 338 -7 L338 -7 Z M217 791 L465 791 L465 833 L217 833 L217 791 Z " />
<glyph glyph-name="umacron" unicode="&#x16b;" horiz-adv-x="579" d="M261 -8 C353 -8 420 43 444 100 L444 0 L497 0 L497 523 L444 523 L444 205 C444 95 358 38 273 38 C182 38 130 84 130 195 L130 523 L77 523 L77 192 C77 48 153 -8 261 -8 L261 -8 Z M168 647 L410 647 L410 689 L168 689 L168 647 Z " />
<glyph glyph-name="Ubreve" unicode="&#x16c;" horiz-adv-x="682" d="M338 -7 C516 -7 601 96 601 267 L601 715 L545 715 L545 275 C545 106 476 40 339 40 C206 40 137 109 137 262 L137 715 L82 715 L82 256 C82 85 177 -7 338 -7 L338 -7 Z M339 771 C406 771 464 823 468 893 L425 893 C419 847 386 815 339 815 C293 815 262 847 257 893 L213 893 C217 823 271 771 339 771 L339 771 Z " />
<glyph glyph-name="ubreve" unicode="&#x16d;" horiz-adv-x="579" d="M261 -8 C353 -8 420 43 444 100 L444 0 L497 0 L497 523 L444 523 L444 205 C444 95 358 38 273 38 C182 38 130 84 130 195 L130 523 L77 523 L77 192 C77 48 153 -8 261 -8 L261 -8 Z M288 616 C355 616 409 666 413 737 L371 737 C364 690 335 660 288 660 C242 660 215 690 210 737 L166 737 C170 666 220 616 288 616 L288 616 Z " />
<glyph glyph-name="Uring" unicode="&#x16e;" horiz-adv-x="682" d="M338 -7 C516 -7 601 96 601 267 L601 715 L545 715 L545 275 C545 106 476 40 339 40 C206 40 137 109 137 262 L137 715 L82 715 L82 256 C82 85 177 -7 338 -7 L338 -7 Z M341 762 C307 762 280 790 280 826 C280 862 307 890 341 890 C376 890 402 862 402 826 C402 790 376 762 341 762 L341 762 Z M341 730 C395 730 439 774 439 826 C439 878 395 921 341 921 C288 921 243 878 243 826 C243 774 288 730 341 730 L341 730 Z " />
<glyph glyph-name="uring" unicode="&#x16f;" horiz-adv-x="579" d="M288 617 C254 617 227 644 227 680 C227 717 254 744 288 744 C323 744 349 717 349 680 C349 644 323 617 288 617 L288 617 Z M288 585 C342 585 386 628 386 680 C386 732 342 776 288 776 C235 776 190 732 190 680 C190 628 235 585 288 585 L288 585 Z M261 -8 C353 -8 420 43 444 100 L444 0 L497 0 L497 523 L444 523 L444 205 C444 95 358 38 273 38 C182 38 130 84 130 195 L130 523 L77 523 L77 192 C77 48 153 -8 261 -8 L261 -8 Z " />
<glyph glyph-name="Uhungarumlaut" unicode="&#x170;" horiz-adv-x="682" d="M251 771 L291 771 L356 893 L296 893 L251 771 Z M383 771 L423 771 L488 893 L428 893 L383 771 Z M338 -7 C516 -7 601 96 601 267 L601 715 L545 715 L545 275 C545 106 476 40 339 40 C206 40 137 109 137 262 L137 715 L82 715 L82 256 C82 85 177 -7 338 -7 L338 -7 Z " />
<glyph glyph-name="uhungarumlaut" unicode="&#x171;" horiz-adv-x="579" d="M261 -8 C353 -8 420 43 444 100 L444 0 L497 0 L497 523 L444 523 L444 205 C444 95 358 38 273 38 C182 38 130 84 130 195 L130 523 L77 523 L77 192 C77 48 153 -8 261 -8 L261 -8 Z M203 605 L243 605 L312 752 L252 752 L203 605 Z M335 605 L375 605 L444 752 L384 752 L335 605 Z " />
<glyph glyph-name="Uogonek" unicode="&#x172;" horiz-adv-x="682" d="M381 -182 C405 -182 423 -177 438 -171 L438 -132 C423 -139 405 -142 388 -142 C355 -142 339 -125 339 -98 C339 -43 396 -13 465 17 C554 54 601 142 601 267 L601 715 L545 715 L545 275 C545 106 476 40 339 40 C206 40 137 109 137 262 L137 715 L82 715 L82 256 C82 85 177 -7 338 -7 C344 -7 353 -6 359 -6 C318 -29 288 -66 288 -107 C288 -152 323 -182 381 -182 L381 -182 Z " />
<glyph glyph-name="uogonek" unicode="&#x173;" horiz-adv-x="579" d="M460 -182 C483 -182 502 -177 517 -171 L517 -132 C502 -139 484 -142 467 -142 C434 -142 417 -125 417 -98 C417 -62 444 -31 497 3 L497 523 L444 523 L444 205 C444 95 358 38 273 38 C182 38 130 84 130 195 L130 523 L77 523 L77 192 C77 48 153 -8 261 -8 C353 -8 420 43 444 100 L444 0 C403 -22 367 -62 367 -107 C367 -152 402 -182 460 -182 L460 -182 Z " />
<glyph glyph-name="Wcircumflex" unicode="&#x174;" horiz-adv-x="920" d="M325 771 L366 771 L459 849 L551 771 L593 771 L485 893 L435 893 L325 771 Z M222 0 L275 0 L461 616 L637 0 L691 0 L887 715 L836 715 L663 83 L481 715 L442 715 L253 85 L89 715 L33 715 L222 0 Z " />
<glyph glyph-name="wcircumflex" unicode="&#x175;" horiz-adv-x="776" d="M254 605 L295 605 L388 695 L480 605 L522 605 L414 740 L364 740 L254 605 Z M192 0 L252 0 L391 438 L521 0 L582 0 L747 523 L693 523 L552 65 L414 523 L369 523 L226 65 L86 523 L29 523 L192 0 Z " />
<glyph glyph-name="Ycircumflex" unicode="&#x176;" horiz-adv-x="578" d="M268 0 L324 0 L324 317 L555 715 L499 715 L297 365 L85 715 L23 715 L268 318 L268 0 Z M158 771 L199 771 L292 849 L384 771 L426 771 L318 893 L268 893 L158 771 Z " />
<glyph glyph-name="ycircumflex" unicode="&#x177;" horiz-adv-x="508" d="M137 -182 L192 -182 L482 523 L428 523 L261 106 L82 523 L25 523 L232 45 L137 -182 Z M121 605 L162 605 L255 695 L347 605 L389 605 L281 740 L231 740 L121 605 Z " />
<glyph glyph-name="Ydieresis" unicode="&#x178;" horiz-adv-x="578" d="M268 0 L324 0 L324 317 L555 715 L499 715 L297 365 L85 715 L23 715 L268 318 L268 0 Z M202 788 C222 788 238 805 238 825 C238 844 222 861 202 861 C181 861 165 844 165 825 C165 805 181 788 202 788 L202 788 Z M382 788 C402 788 418 805 418 825 C418 844 402 861 382 861 C362 861 346 844 346 825 C346 805 362 788 382 788 L382 788 Z " />
<glyph glyph-name="Zacute" unicode="&#x179;" horiz-adv-x="587" d="M269 771 L311 771 L399 893 L333 893 L269 771 Z M27 0 L542 0 L542 48 L111 48 L548 705 L548 715 L63 715 L63 669 L470 669 L27 11 L27 0 Z " />
<glyph glyph-name="zacute" unicode="&#x17a;" horiz-adv-x="474" d="M217 605 L258 605 L350 752 L285 752 L217 605 Z M24 0 L440 0 L440 47 L110 47 L447 513 L447 523 L54 523 L54 478 L364 478 L24 9 L24 0 Z " />
<glyph glyph-name="Zdotaccent" unicode="&#x17b;" horiz-adv-x="587" d="M27 0 L542 0 L542 48 L111 48 L548 705 L548 715 L63 715 L63 669 L470 669 L27 11 L27 0 Z M296 787 C317 787 334 804 334 825 C334 845 317 862 296 862 C275 862 258 845 258 825 C258 804 275 787 296 787 L296 787 Z " />
<glyph glyph-name="zdotaccent" unicode="&#x17c;" horiz-adv-x="474" d="M24 0 L440 0 L440 47 L110 47 L447 513 L447 523 L54 523 L54 478 L364 478 L24 9 L24 0 Z M245 635 C266 635 283 652 283 673 C283 693 266 710 245 710 C224 710 207 693 207 673 C207 652 224 635 245 635 L245 635 Z " />
<glyph glyph-name="Zcaron" unicode="&#x17d;" horiz-adv-x="587" d="M270 771 L320 771 L431 893 L390 893 L296 816 L203 893 L161 893 L270 771 Z M27 0 L542 0 L542 48 L111 48 L548 705 L548 715 L63 715 L63 669 L470 669 L27 11 L27 0 Z " />
<glyph glyph-name="zcaron" unicode="&#x17e;" horiz-adv-x="474" d="M219 613 L269 613 L379 748 L338 748 L245 658 L153 748 L111 748 L219 613 Z M24 0 L440 0 L440 47 L110 47 L447 513 L447 523 L54 523 L54 478 L364 478 L24 9 L24 0 Z " />
<glyph glyph-name="florin" unicode="&#x192;" horiz-adv-x="384" d="M29 359 L117 359 L34 -182 L87 -182 L170 359 L321 359 L321 403 L176 403 L201 564 C213 644 251 679 311 679 C341 679 363 673 378 667 L378 713 C360 719 340 724 310 724 C224 724 165 677 149 566 L124 403 L29 403 L29 359 Z " />
<glyph glyph-name="Aringacute" unicode="&#x1fa;" horiz-adv-x="654" d="M33 0 L86 0 L164 219 L486 219 L565 0 L621 0 L364 715 L290 715 L33 0 Z M325 669 L470 264 L180 264 L325 669 Z M326 749 C380 749 424 793 424 845 C424 897 380 940 326 940 C273 940 228 897 228 845 C228 793 273 749 326 749 L326 749 Z M326 781 C292 781 265 809 265 845 C265 881 292 909 326 909 C361 909 387 881 387 845 C387 809 361 781 326 781 L326 781 Z M301 969 L343 969 L431 1091 L365 1091 L301 969 Z " />
<glyph glyph-name="aringacute" unicode="&#x1fb;" horiz-adv-x="529" d="M221 -8 C309 -8 365 29 398 80 L398 0 L451 0 L451 346 C451 479 377 531 268 531 C169 531 79 485 67 375 L119 375 C131 452 187 486 266 486 C358 486 398 444 398 346 L398 299 L289 299 C160 299 44 262 44 141 C44 42 118 -8 221 -8 L221 -8 Z M225 35 C139 35 97 74 97 141 C97 235 182 258 291 258 L398 258 L398 169 C398 91 321 35 225 35 L225 35 Z M269 623 C235 623 208 650 208 686 C208 723 235 750 269 750 C304 750 330 723 330 686 C330 650 304 623 269 623 L269 623 Z M269 591 C323 591 367 634 367 686 C367 738 323 782 269 782 C216 782 171 738 171 686 C171 634 216 591 269 591 L269 591 Z M247 829 L289 829 L377 951 L311 951 L247 829 Z " />
<glyph glyph-name="AEacute" unicode="&#x1fc;" horiz-adv-x="946" d="M29 0 L86 0 L196 220 L472 220 L472 0 L901 0 L901 46 L528 46 L528 344 L816 344 L816 390 L528 390 L528 669 L883 669 L883 715 L392 715 L29 0 Z M421 669 L472 669 L472 264 L218 264 L421 669 Z M580 771 L622 771 L710 893 L644 893 L580 771 Z " />
<glyph glyph-name="aeacute" unicode="&#x1fd;" horiz-adv-x="897" d="M638 -8 C747 -8 830 46 851 146 L798 146 C781 73 724 37 639 37 C517 37 454 118 452 258 L855 258 L855 276 C855 450 755 531 632 531 C546 531 478 488 439 417 C417 498 354 531 268 531 C170 531 79 485 67 375 L119 375 C131 452 187 486 266 486 C357 486 400 443 400 345 L400 299 L287 299 C158 299 44 262 44 140 C44 41 118 -8 221 -8 C318 -8 395 35 429 123 C465 42 538 -8 638 -8 L638 -8 Z M226 35 C139 35 97 73 97 140 C97 234 179 258 288 258 L400 258 L400 181 C400 91 321 35 226 35 L226 35 Z M453 299 C463 413 533 486 632 486 C732 486 796 427 801 299 L453 299 Z M425 605 L466 605 L558 752 L493 752 L425 605 Z " />
<glyph glyph-name="Oslashacute" unicode="&#x1fe;" horiz-adv-x="801" d="M71 -24 L167 82 C227 26 309 -8 403 -8 C603 -8 749 153 749 355 L749 363 C749 462 713 552 652 617 L736 709 L707 739 L622 645 C563 694 487 723 401 723 C200 723 53 564 53 361 L53 353 C53 260 84 176 138 112 L41 5 L71 -24 Z M403 39 C323 39 253 68 201 119 L618 580 C665 525 691 450 691 364 L691 356 C691 173 574 39 403 39 L403 39 Z M110 354 L110 362 C110 542 226 677 401 677 C476 677 541 652 589 609 L173 151 C133 204 110 273 110 354 L110 354 Z M373 771 L415 771 L503 893 L437 893 L373 771 Z " />
<glyph glyph-name="oslashacute" unicode="&#x1ff;" horiz-adv-x="591" d="M61 -25 L130 52 C174 14 231 -8 295 -8 C436 -8 548 100 548 258 L548 266 C548 339 524 401 485 447 L551 520 L522 545 L458 473 C414 510 358 531 296 531 C156 531 43 422 43 265 L43 257 C43 187 65 126 103 80 L31 0 L61 -25 Z M296 37 C243 37 197 55 162 88 L451 409 C477 372 493 323 493 265 L493 257 C493 122 408 37 296 37 L296 37 Z M98 257 L98 265 C98 401 184 486 296 486 C346 486 391 469 425 437 L137 118 C112 154 98 201 98 257 L98 257 Z M266 605 L307 605 L399 752 L334 752 L266 605 Z " />
<glyph glyph-name="Scommaaccent" unicode="&#x218;" horiz-adv-x="602" d="M254 -204 L329 -56 L278 -41 L220 -188 L254 -204 Z M308 -8 C452 -8 547 82 547 195 C547 329 470 374 310 398 C161 420 122 462 122 540 C122 626 185 677 295 677 C401 677 457 632 474 543 L525 543 C509 657 428 723 295 723 C161 723 70 647 70 536 C70 423 145 371 301 348 C445 326 493 291 493 191 C493 103 420 38 308 38 C159 38 109 115 97 205 L42 205 C57 88 131 -8 308 -8 L308 -8 Z " />
<glyph glyph-name="scommaaccent" unicode="&#x219;" horiz-adv-x="465" d="M195 -204 L270 -56 L219 -41 L161 -188 L195 -204 Z M239 -9 C358 -9 423 55 423 143 C423 245 359 272 247 292 C140 311 104 333 104 393 C104 449 153 486 226 486 C302 486 345 456 358 389 L409 389 C395 492 321 531 227 531 C139 531 55 480 55 391 C55 301 107 268 235 245 C333 227 372 206 372 139 C372 76 327 36 239 36 C142 36 98 85 89 156 L38 156 C45 56 116 -9 239 -9 L239 -9 Z " />
<glyph glyph-name="uni0237" unicode="&#x237;" horiz-adv-x="221" d="M7 -188 C102 -184 137 -139 137 -48 L137 523 L84 523 L84 -52 C84 -108 66 -138 7 -143 L7 -188 Z " />
<glyph glyph-name="circumflex" unicode="&#x2c6;" horiz-adv-x="400" d="M66 605 L107 605 L200 695 L292 605 L334 605 L226 740 L176 740 L66 605 Z " />
<glyph glyph-name="caron" unicode="&#x2c7;" horiz-adv-x="400" d="M174 613 L224 613 L334 748 L293 748 L200 658 L108 748 L66 748 L174 613 Z " />
<glyph glyph-name="breve" unicode="&#x2d8;" horiz-adv-x="400" d="M199 616 C266 616 320 666 324 737 L282 737 C275 690 246 660 199 660 C153 660 126 690 121 737 L77 737 C81 666 131 616 199 616 L199 616 Z " />
<glyph glyph-name="dotaccent" unicode="&#x2d9;" horiz-adv-x="400" d="M200 635 C221 635 238 652 238 673 C238 693 221 710 200 710 C179 710 162 693 162 673 C162 652 179 635 200 635 L200 635 Z " />
<glyph glyph-name="ring" unicode="&#x2da;" horiz-adv-x="400" d="M200 633 C166 633 139 660 139 696 C139 733 166 760 200 760 C235 760 261 733 261 696 C261 660 235 633 200 633 L200 633 Z M200 601 C254 601 298 644 298 696 C298 748 254 792 200 792 C147 792 102 748 102 696 C102 644 147 601 200 601 L200 601 Z " />
<glyph glyph-name="ogonek" unicode="&#x2db;" horiz-adv-x="400" d="M217 -182 C240 -182 259 -177 274 -171 L274 -132 C259 -139 241 -142 224 -142 C191 -142 175 -125 175 -98 C175 -62 202 -32 251 0 L203 0 C161 -23 124 -61 124 -107 C124 -152 159 -182 217 -182 L217 -182 Z " />
<glyph glyph-name="tilde" unicode="&#x2dc;" horiz-adv-x="400" d="M264 616 C307 616 342 652 350 715 L310 715 C305 681 285 662 264 662 C229 662 188 715 141 715 C97 715 62 679 54 616 L95 616 C100 649 119 669 140 669 C175 669 216 616 264 616 L264 616 Z " />
<glyph glyph-name="hungarumlaut" unicode="&#x2dd;" horiz-adv-x="400" d="M112 605 L152 605 L221 752 L161 752 L112 605 Z M244 605 L284 605 L353 752 L293 752 L244 605 Z " />
<glyph glyph-name="Wgrave" unicode="&#x1e80;" horiz-adv-x="920" d="M446 771 L488 771 L424 893 L358 893 L446 771 Z M222 0 L275 0 L461 616 L637 0 L691 0 L887 715 L836 715 L663 83 L481 715 L442 715 L253 85 L89 715 L33 715 L222 0 Z " />
<glyph glyph-name="wgrave" unicode="&#x1e81;" horiz-adv-x="776" d="M192 0 L252 0 L391 438 L521 0 L582 0 L747 523 L693 523 L552 65 L414 523 L369 523 L226 65 L86 523 L29 523 L192 0 Z M378 605 L419 605 L351 752 L286 752 L378 605 Z " />
<glyph glyph-name="Wacute" unicode="&#x1e82;" horiz-adv-x="920" d="M439 771 L481 771 L569 893 L503 893 L439 771 Z M222 0 L275 0 L461 616 L637 0 L691 0 L887 715 L836 715 L663 83 L481 715 L442 715 L253 85 L89 715 L33 715 L222 0 Z " />
<glyph glyph-name="wacute" unicode="&#x1e83;" horiz-adv-x="776" d="M366 605 L407 605 L499 752 L434 752 L366 605 Z M192 0 L252 0 L391 438 L521 0 L582 0 L747 523 L693 523 L552 65 L414 523 L369 523 L226 65 L86 523 L29 523 L192 0 Z " />
<glyph glyph-name="Wdieresis" unicode="&#x1e84;" horiz-adv-x="920" d="M371 788 C391 788 407 805 407 825 C407 844 391 861 371 861 C350 861 334 844 334 825 C334 805 350 788 371 788 L371 788 Z M551 788 C571 788 587 805 587 825 C587 844 571 861 551 861 C531 861 515 844 515 825 C515 805 531 788 551 788 L551 788 Z M222 0 L275 0 L461 616 L637 0 L691 0 L887 715 L836 715 L663 83 L481 715 L442 715 L253 85 L89 715 L33 715 L222 0 Z " />
<glyph glyph-name="wdieresis" unicode="&#x1e85;" horiz-adv-x="776" d="M308 636 C328 636 344 653 344 673 C344 693 328 709 308 709 C287 709 271 693 271 673 C271 653 287 636 308 636 L308 636 Z M474 636 C495 636 511 653 511 673 C511 693 495 709 474 709 C454 709 438 693 438 673 C438 653 454 636 474 636 L474 636 Z M192 0 L252 0 L391 438 L521 0 L582 0 L747 523 L693 523 L552 65 L414 523 L369 523 L226 65 L86 523 L29 523 L192 0 Z " />
<glyph glyph-name="Ygrave" unicode="&#x1ef2;" horiz-adv-x="578" d="M268 0 L324 0 L324 317 L555 715 L499 715 L297 365 L85 715 L23 715 L268 318 L268 0 Z M282 771 L324 771 L260 893 L194 893 L282 771 Z " />
<glyph glyph-name="ygrave" unicode="&#x1ef3;" horiz-adv-x="508" d="M137 -182 L192 -182 L482 523 L428 523 L261 106 L82 523 L25 523 L232 45 L137 -182 Z M242 605 L283 605 L215 752 L150 752 L242 605 Z " />
<glyph glyph-name="uni2009" unicode="&#x2009;" horiz-adv-x="110" d="" />
<glyph glyph-name="endash" unicode="&#x2013;" horiz-adv-x="503" d="M46 255 L457 255 L457 300 L46 300 L46 255 Z " />
<glyph glyph-name="emdash" unicode="&#x2014;" horiz-adv-x="869" d="M46 255 L823 255 L823 300 L46 300 L46 255 Z " />
<glyph glyph-name="quoteleft" unicode="&#x2018;" horiz-adv-x="214" d="M93 528 L168 706 L134 722 L42 551 L93 528 Z " />
<glyph glyph-name="quoteright" unicode="&#x2019;" horiz-adv-x="214" d="M80 528 L172 700 L121 722 L46 545 L80 528 Z " />
<glyph glyph-name="quotesinglbase" unicode="&#x201a;" horiz-adv-x="214" d="M80 -87 L172 85 L121 107 L46 -70 L80 -87 Z " />
<glyph glyph-name="quotedblleft" unicode="&#x201c;" horiz-adv-x="354" d="M93 528 L168 706 L134 722 L42 551 L93 528 Z M233 528 L308 706 L274 722 L182 551 L233 528 Z " />
<glyph glyph-name="quotedblright" unicode="&#x201d;" horiz-adv-x="354" d="M80 528 L172 700 L121 722 L46 545 L80 528 Z M220 528 L312 700 L261 722 L185 545 L220 528 Z " />
<glyph glyph-name="quotedblbase" unicode="&#x201e;" horiz-adv-x="354" d="M80 -87 L172 85 L121 107 L46 -70 L80 -87 Z M220 -87 L312 85 L261 107 L185 -70 L220 -87 Z " />
<glyph glyph-name="dagger" unicode="&#x2020;" horiz-adv-x="349" d="M150 221 L199 221 L199 536 L317 536 L317 580 L199 580 L199 715 L150 715 L150 580 L32 580 L32 536 L150 536 L150 221 Z " />
<glyph glyph-name="daggerdbl" unicode="&#x2021;" horiz-adv-x="349" d="M150 400 L32 400 L32 356 L150 356 L150 221 L199 221 L199 356 L317 356 L317 400 L199 400 L199 536 L317 536 L317 580 L199 580 L199 715 L150 715 L150 580 L32 580 L32 536 L150 536 L150 400 Z " />
<glyph glyph-name="bullet" unicode="&#x2022;" horiz-adv-x="316" d="M158 199 C219 199 264 247 264 305 C264 364 219 411 158 411 C98 411 52 364 52 305 C52 247 98 199 158 199 L158 199 Z " />
<glyph glyph-name="ellipsis" unicode="&#x2026;" horiz-adv-x="697" d="M114 -5 C138 -5 157 14 157 37 C157 61 138 80 114 80 C91 80 72 61 72 37 C72 14 91 -5 114 -5 L114 -5 Z M348 -5 C372 -5 391 14 391 37 C391 61 372 80 348 80 C325 80 306 61 306 37 C306 14 325 -5 348 -5 L348 -5 Z M582 -5 C606 -5 625 14 625 37 C625 61 606 80 582 80 C559 80 540 61 540 37 C540 14 559 -5 582 -5 L582 -5 Z " />
<glyph glyph-name="perthousand" unicode="&#x2030;" horiz-adv-x="1109" d="M194 446 C136 446 89 488 89 561 C89 635 136 678 194 678 C254 678 299 633 299 562 C299 489 253 446 194 446 L194 446 Z M194 404 C275 404 348 467 348 562 C348 655 278 720 194 720 C113 720 40 655 40 560 C40 467 115 404 194 404 L194 404 Z M125 0 L175 0 L630 715 L580 715 L125 0 Z M557 35 C499 35 452 77 452 150 C452 224 498 267 557 267 C617 267 662 222 662 151 C662 78 616 35 557 35 L557 35 Z M557 -7 C637 -7 711 56 711 151 C711 244 640 309 557 309 C475 309 403 244 403 149 C403 56 477 -7 557 -7 L557 -7 Z M915 35 C857 35 810 77 810 150 C810 224 857 267 915 267 C975 267 1020 222 1020 151 C1020 78 974 35 915 35 L915 35 Z M915 -7 C996 -7 1069 56 1069 151 C1069 244 999 309 915 309 C834 309 762 244 762 149 C762 56 836 -7 915 -7 L915 -7 Z " />
<glyph glyph-name="uni2032" unicode="&#x2032;" horiz-adv-x="174" d="M43 506 L83 506 L131 715 L73 715 L43 506 Z " />
<glyph glyph-name="uni2033" unicode="&#x2033;" horiz-adv-x="305" d="M43 506 L83 506 L131 715 L73 715 L43 506 Z M174 506 L214 506 L261 715 L204 715 L174 506 Z " />
<glyph glyph-name="guilsinglleft" unicode="&#x2039;" horiz-adv-x="290" d="M189 83 L243 83 L111 261 L243 439 L189 439 L54 261 L189 83 Z " />
<glyph glyph-name="guilsinglright" unicode="&#x203a;" horiz-adv-x="290" d="M47 83 L101 83 L236 261 L101 439 L47 439 L179 261 L47 83 Z " />
<glyph glyph-name="fraction" unicode="&#x2044;" horiz-adv-x="113" d="M-224 0 L-179 0 L337 715 L292 715 L-224 0 Z " />
<glyph glyph-name="Euro" unicode="&#x20ac;" horiz-adv-x="657" d="M32 406 L100 406 L100 308 L32 308 L32 270 L101 270 C112 106 206 -8 364 -8 C503 -8 591 76 608 215 L556 215 C540 104 475 39 364 39 C236 39 165 127 156 270 L375 270 L382 308 L155 308 L155 406 L401 406 L408 444 L156 444 C165 586 238 678 363 678 C469 678 531 618 546 516 L599 516 C583 644 500 723 363 723 C204 723 112 605 101 444 L32 444 L32 406 Z " />
<glyph glyph-name="trademark" unicode="&#x2122;" horiz-adv-x="675" d="M324 400 L359 400 L359 667 L470 400 L484 400 L595 667 L595 400 L633 400 L633 715 L579 715 L479 467 L378 715 L324 715 L324 400 Z M128 400 L167 400 L167 684 L264 684 L264 715 L30 715 L30 684 L128 684 L128 400 Z " />
<glyph glyph-name="onethird" unicode="&#x2153;" horiz-adv-x="703" d="M544 -4 C618 -4 666 34 666 97 C666 143 636 172 596 181 C631 192 655 217 655 257 C655 308 613 347 546 347 C474 347 432 303 428 247 L468 247 C473 285 499 313 545 313 C587 313 612 289 612 254 C612 220 591 195 546 195 L521 195 L521 162 L548 162 C595 162 621 137 621 97 C621 55 593 30 543 30 C488 30 461 62 456 101 L415 101 C418 41 465 -4 544 -4 L544 -4 Z M115 372 L160 372 L160 715 L123 715 L27 648 L27 607 L115 668 L115 372 Z M34 0 L79 0 L595 715 L550 715 L34 0 Z " />
<glyph glyph-name="twothirds" unicode="&#x2154;" horiz-adv-x="743" d="M584 -4 C658 -4 706 34 706 97 C706 143 676 172 636 181 C671 192 695 217 695 257 C695 308 653 347 586 347 C514 347 472 303 468 247 L508 247 C513 285 539 313 585 313 C627 313 652 289 652 254 C652 220 631 195 586 195 L561 195 L561 162 L588 162 C635 162 661 137 661 97 C661 55 633 30 583 30 C528 30 501 62 496 101 L455 101 C458 41 505 -4 584 -4 L584 -4 Z M18 372 L258 372 L258 407 L92 407 L182 494 C230 540 254 574 254 621 C254 679 213 719 145 719 C77 719 32 677 28 606 L69 606 C75 656 100 684 144 684 C184 684 210 660 210 620 C210 584 189 554 148 512 L18 381 L18 372 Z M92 0 L137 0 L653 715 L608 715 L92 0 Z " />
<glyph glyph-name="oneeighth" unicode="&#x215b;" horiz-adv-x="696" d="M535 -4 C606 -4 661 30 661 97 C661 143 631 171 588 184 C622 195 647 221 647 259 C647 313 595 347 535 347 C476 347 423 313 423 258 C423 221 449 195 483 183 C441 172 409 142 409 95 C409 29 466 -4 535 -4 L535 -4 Z M535 30 C490 30 454 53 454 98 C454 142 491 167 536 167 C581 167 616 143 616 99 C616 53 582 30 535 30 L535 30 Z M536 198 C501 198 466 219 466 256 C466 292 496 314 535 314 C575 314 604 291 604 257 C604 219 574 198 536 198 L536 198 Z M112 372 L157 372 L157 715 L120 715 L24 648 L24 607 L112 668 L112 372 Z M37 0 L82 0 L598 715 L553 715 L37 0 Z " />
<glyph glyph-name="threeeighths" unicode="&#x215c;" horiz-adv-x="731" d="M570 -4 C641 -4 696 30 696 97 C696 143 666 171 623 184 C657 195 682 221 682 259 C682 313 630 347 570 347 C511 347 458 313 458 258 C458 221 484 195 518 183 C476 172 444 142 444 95 C444 29 501 -4 570 -4 L570 -4 Z M570 30 C525 30 489 53 489 98 C489 142 526 167 571 167 C616 167 651 143 651 99 C651 53 617 30 570 30 L570 30 Z M571 198 C536 198 501 219 501 256 C501 292 531 314 570 314 C610 314 639 291 639 257 C639 219 609 198 571 198 L571 198 Z M83 0 L128 0 L644 715 L599 715 L83 0 Z M156 368 C230 368 278 405 278 468 C278 515 248 544 208 553 C243 563 267 589 267 628 C267 680 225 719 158 719 C86 719 44 675 40 619 L80 619 C85 657 111 685 157 685 C199 685 224 661 224 626 C224 591 203 567 158 567 L133 567 L133 534 L160 534 C207 534 233 508 233 469 C233 427 205 402 155 402 C100 402 73 434 68 473 L27 473 C30 412 77 368 156 368 L156 368 Z " />
<glyph glyph-name="fiveeighths" unicode="&#x215d;" horiz-adv-x="720" d="M559 -4 C630 -4 685 30 685 97 C685 143 655 171 612 184 C646 195 671 221 671 259 C671 313 619 347 559 347 C500 347 447 313 447 258 C447 221 473 195 507 183 C465 172 433 142 433 95 C433 29 490 -4 559 -4 L559 -4 Z M559 30 C514 30 478 53 478 98 C478 142 515 167 560 167 C605 167 640 143 640 99 C640 53 606 30 559 30 L559 30 Z M560 198 C525 198 490 219 490 256 C490 292 520 314 559 314 C599 314 628 291 628 257 C628 219 598 198 560 198 L560 198 Z M145 368 C216 368 266 412 266 484 C266 554 221 598 160 598 C123 598 96 583 81 568 L82 680 L246 680 L246 715 L46 715 L44 530 L67 530 C83 550 109 564 147 564 C190 564 220 533 220 484 C220 435 192 403 145 403 C95 403 74 430 69 465 L26 465 C31 411 70 368 145 368 L145 368 Z M72 0 L117 0 L633 715 L588 715 L72 0 Z " />
<glyph glyph-name="seveneighths" unicode="&#x215e;" horiz-adv-x="693" d="M532 -4 C603 -4 658 30 658 97 C658 143 628 171 585 184 C619 195 644 221 644 259 C644 313 592 347 532 347 C473 347 420 313 420 258 C420 221 446 195 480 183 C438 172 406 142 406 95 C406 29 463 -4 532 -4 L532 -4 Z M532 30 C487 30 451 53 451 98 C451 142 488 167 533 167 C578 167 613 143 613 99 C613 53 579 30 532 30 L532 30 Z M533 198 C498 198 463 219 463 256 C463 292 493 314 532 314 C572 314 601 291 601 257 C601 219 571 198 533 198 L533 198 Z M78 372 L124 372 L259 709 L259 715 L22 715 L22 678 L202 678 L78 372 Z M28 0 L73 0 L589 715 L544 715 L28 0 Z " />
<glyph glyph-name="minus" unicode="&#x2212;" horiz-adv-x="510" d="M36 319 L474 319 L474 365 L36 365 L36 319 Z " />
<glyph glyph-name="approxequal" unicode="&#x2248;" horiz-adv-x="495" d="M40 180 L82 180 C87 212 108 235 142 235 C205 235 275 182 353 182 C409 182 448 220 455 284 L413 284 C409 252 387 229 353 229 C290 229 220 282 143 282 C86 282 47 243 40 180 L40 180 Z M40 347 L82 347 C87 379 108 402 142 402 C205 402 275 349 353 349 C409 349 448 387 455 451 L413 451 C409 419 387 395 353 395 C290 395 220 449 143 449 C86 449 47 410 40 347 L40 347 Z " />
<glyph glyph-name="notequal" unicode="&#x2260;" horiz-adv-x="484" d="M40 380 L245 380 L193 259 L40 259 L40 213 L173 213 L123 96 L172 96 L222 213 L444 213 L444 259 L242 259 L294 380 L444 380 L444 426 L313 426 L364 543 L315 543 L265 426 L40 426 L40 380 Z " />
<glyph glyph-name="lessequal" unicode="&#x2264;" horiz-adv-x="496" d="M435 117 L435 169 L131 328 L435 488 L435 540 L51 335 L51 322 L435 117 Z M51 0 L435 0 L435 45 L51 45 L51 0 Z " />
<glyph glyph-name="greaterequal" unicode="&#x2265;" horiz-adv-x="496" d="M61 117 L445 322 L445 335 L61 540 L61 488 L366 328 L61 169 L61 117 Z M61 0 L445 0 L445 45 L61 45 L61 0 Z " />
<glyph glyph-name="uni24C5" unicode="&#x24c5;" horiz-adv-x="844" d="M310 156 L362 156 L362 321 L431 321 C516 321 575 356 575 440 L575 443 C575 526 518 562 429 562 L310 562 L310 156 Z M362 360 L362 521 L429 521 C488 521 524 500 524 443 L524 440 C524 385 489 360 429 360 L362 360 Z M421 23 C244 23 92 162 92 357 C92 550 240 692 423 692 C606 692 752 551 752 359 C752 164 601 23 421 23 L421 23 Z M421 -9 C627 -9 789 151 789 359 C789 562 631 724 423 724 C217 724 55 561 55 357 C55 150 218 -9 421 -9 L421 -9 Z " />
<glyph glyph-name="f_f" unicode="&#xfb00;" horiz-adv-x="611" d="M105 0 L158 0 L158 478 L384 478 L384 0 L437 0 L437 478 L582 478 L582 523 L437 523 L437 622 C437 698 476 731 533 731 C555 731 574 727 589 722 L589 767 C570 773 556 776 532 776 C444 776 384 726 384 617 L384 523 L158 523 L158 614 C158 690 197 723 255 723 C277 723 296 719 311 714 L311 759 C292 766 278 768 253 768 C166 768 105 718 105 609 L105 523 L26 523 L26 478 L105 478 L105 0 Z " />
<glyph glyph-name="f_i" unicode="&#xfb01;" horiz-adv-x="548" d="M410 0 L463 0 L463 523 L410 523 L410 0 Z M436 635 C457 635 473 652 473 673 C473 693 457 710 436 710 C415 710 398 693 398 673 C398 652 415 635 436 635 L436 635 Z M105 0 L158 0 L158 478 L304 478 L304 523 L158 523 L158 622 C158 699 195 731 250 731 C272 731 290 728 304 723 L304 768 C289 774 273 776 249 776 C164 776 105 727 105 617 L105 523 L26 523 L26 478 L105 478 L105 0 Z " />
<glyph glyph-name="f_l" unicode="&#xfb02;" horiz-adv-x="548" d="M105 0 L158 0 L158 478 L304 478 L304 523 L158 523 L158 622 C158 699 195 731 250 731 C272 731 290 728 304 723 L304 768 C289 774 273 776 249 776 C164 776 105 727 105 617 L105 523 L26 523 L26 478 L105 478 L105 0 Z M410 0 L464 0 L464 773 L410 773 L410 0 Z " />
</font>
</svg>
